<?xml version="1.0" standalone="no"?>
<!DOCTYPE svg PUBLIC "-//W3C//DTD SVG 1.1//EN" "http://www.w3.org/Graphics/SVG/1.1/DTD/svg11.dtd" >
<svg xmlns="http://www.w3.org/2000/svg">
<metadata>Generated by IcoMoon</metadata>
<defs>
<font id="icomoon" horiz-adv-x="1024">
<font-face units-per-em="1024" ascent="960" descent="-64" />
<missing-glyph horiz-adv-x="1024" />
<glyph unicode="&#x20;" horiz-adv-x="512" d="" />
<glyph unicode="&#xe000;" glyph-name="grace" d="M554 384.667v256h-84v-256h84zM554 212.667v86h-84v-86h84zM512 852.667c236 0 426-190 426-426s-190-426-426-426-426 190-426 426 190 426 426 426z" />
<glyph unicode="&#xe001;" glyph-name="missing" d="M512 84.667c188 0 342 154 342 342s-154 342-342 342-342-154-342-342 154-342 342-342zM512 852.667c236 0 426-190 426-426s-190-426-426-426-426 190-426 426 190 426 426 426zM470 640.667h84v-256h-84v256zM470 298.667h84v-86h-84v86z" />
<glyph unicode="&#xe0e1;" glyph-name="mail" d="M512 468.667l342 214h-684zM854 170.667v426l-342-212-342 212v-426h684zM854 768.667c46 0 84-40 84-86v-512c0-46-38-86-84-86h-684c-46 0-84 40-84 86v512c0 46 38 86 84 86h684z" />
<glyph unicode="&#xe313;" glyph-name="desc" d="M316 604.667l196-196 196 196 60-60-256-256-256 256z" />
<glyph unicode="&#xe316;" glyph-name="asc" d="M316 280.667l-60 60 256 256 256-256-60-60-196 196z" />
<glyph unicode="&#xe5c9;" glyph-name="cancel" d="M726 272.667l-154 154 154 154-60 60-154-154-154 154-60-60 154-154-154-154 60-60 154 154 154-154zM512 852.667c236 0 426-190 426-426s-190-426-426-426-426 190-426 426 190 426 426 426z" />
<glyph unicode="&#xe5cd;" glyph-name="close" d="M810 664.667l-238-238 238-238-60-60-238 238-238-238-60 60 238 238-238 238 60 60 238-238 238 238z" />
<glyph unicode="&#xe5d3;" glyph-name="dots" d="M512 512.667c46 0 86-40 86-86s-40-86-86-86-86 40-86 86 40 86 86 86zM768 512.667c46 0 86-40 86-86s-40-86-86-86-86 40-86 86 40 86 86 86zM256 512.667c46 0 86-40 86-86s-40-86-86-86-86 40-86 86 40 86 86 86z" />
<glyph unicode="&#xe7f6;" glyph-name="paused" d="M768 312.667l-382 402c10 4 20 10 30 14h2l12 6c6 2 12 2 18 4v30c0 36 28 64 64 64s64-28 64-64v-30c122-30 192-138 192-270v-156zM512 0.667c-48 0-86 36-86 84h172c0-48-38-84-86-84zM334 676.667c187.235-193.432 375.34-385.994 562-580l-54-54-86 86h-586v42l86 86v214c0 54 12 104 34 146l-120 118 54 56z" />
<glyph unicode="&#xe7f7;" glyph-name="down" d="M512 0.667c-48 0-86 38-86 84h170c0-49.675-37.225-84-84-84zM768 468.667v-212l86-86v-42h-684v42l86 86v212c0 132 70 240 192 270v30c0 36 28 64 64 64s64-28 64-64v-30c122-30 192-140 192-270zM852 490.667c-6 114-64 212-150 274l60 60c102-78 170-198 176-334h-86zM324 764.667c-88-62-146-160-152-274h-86c6 136 74 256 176 334z" />
<glyph unicode="&#xe86c;" glyph-name="up" d="M426 212.667l384 384-60 62-324-324-152 152-60-60zM512 852.667c236 0 426-190 426-426s-190-426-426-426-426 190-426 426 190 426 426 426z" />
<glyph unicode="&#xe900;" glyph-name="delete" d="M810 768.667v-86h-596v86h148l44 42h212l44-42h148zM256 128.667v512h512v-512c0-46-40-86-86-86h-340c-46 0-86 40-86 86z" />
<glyph unicode="&#xe901;" glyph-name="hipchat" d="M842.069 146.944s4.395 3.115 11.392 8.448c104.832 81.067 170.539 198.613 170.539 329.344 0 243.84-229.248 441.685-511.872 441.685-282.709 0-512.128-197.845-512.128-441.685 0-243.925 229.163-441.856 511.915-441.856 36.139 0 72.277 3.115 107.691 9.728l11.179 1.92c71.808-46.592 176.597-84.907 268.288-84.907 28.373 0 41.728 23.296 23.552 47.104-27.648 33.92-65.749 88.235-80.555 130.219zM779.691 340.053c-30.549-45.611-125.184-123.264-266.837-123.264h-1.963c-141.995 0-236.501 78.123-266.837 123.264-5.925 6.635-10.069 14.98-11.609 24.207l-0.039 0.283c-0.040 0.482-0.062 1.044-0.062 1.611 0 10.922 8.376 19.889 19.055 20.826l0.079 0.006c0.341 0.128 0.597 0.128 0.896 0.128 4.992-0.256 9.813-1.835 13.995-4.736 66.349-54.437 152.044-87.507 245.457-87.723h0.047c1.278-0.016 2.787-0.025 4.298-0.025 92.205 0 176.651 33.217 242.026 88.338l-0.564-0.463c3.493 3.227 8.18 5.205 13.33 5.205 0.009 0 0.018 0 0.027 0h-0.001c11.392 0 20.395-9.088 20.608-20.267-1.385-10.492-5.47-19.835-11.527-27.557l0.093 0.122h-0.469z" />
<glyph unicode="&#xe902;" glyph-name="settings" d="M512 276.667c82 0 150 68 150 150s-68 150-150 150-150-68-150-150 68-150 150-150zM830 384.667l90-70c8-6 10-18 4-28l-86-148c-6-10-16-12-26-8l-106 42c-22-16-46-32-72-42l-16-112c-2-10-10-18-20-18h-172c-10 0-18 8-20 18l-16 112c-26 10-50 24-72 42l-106-42c-10-4-20-2-26 8l-86 148c-6 10-4 22 4 28l90 70c-2 14-2 28-2 42s0 28 2 42l-90 70c-8 6-10 18-4 28l86 148c6 10 16 12 26 8l106-42c22 16 46 32 72 42l16 112c2 10 10 18 20 18h172c10 0 18-8 20-18l16-112c26-10 50-24 72-42l106 42c10 4 20 2 26-8l86-148c6-10 4-22-4-28l-90-70c2-14 2-28 2-42s0-28-2-42z" />
<glyph unicode="&#xe903;" glyph-name="clippy" horiz-adv-x="896" d="M704 64h-640v576h640v-192h64v320c0 35-29 64-64 64h-192c0 71-57 128-128 128s-128-57-128-128h-192c-35 0-64-29-64-64v-704c0-35 29-64 64-64h640c35 0 64 29 64 64v128h-64v-128zM192 768c29 0 29 0 64 0s64 29 64 64 29 64 64 64 64-29 64-64 32-64 64-64 33 0 64 0 64-29 64-64h-512c0 39 28 64 64 64zM128 256h128v64h-128v-64zM576 384v128l-256-192 256-192v128h320v128h-320zM128 128h192v64h-192v-64zM448 576h-320v-64h320v64zM256 448h-128v-64h128v64z" />
<glyph unicode="&#xe904;" glyph-name="sms" d="M142.769 893.107c-73.5 0-133.644-60.149-133.644-133.65v-398.151c0-73.5 60.143-133.644 133.644-133.644h56.045v-215.2l195.357 215.2 489.426 0.265c68.005 8.811 129.663 59.708 129.663 133.379v398.151c0 73.501-60.144 133.644-133.644 133.644l-736.847 0.006zM263.737 696.763c16.811-0.371 31.771-4.079 44.873-11.124 13.103-6.922 23.111-16.626 30.033-29.11 6.922-12.361 10.137-26.517 9.643-42.463l-45.608 0.188c0.865 14.091-2.291 25.033-9.46 32.82-7.046 7.787-17.735 11.865-32.073 12.236-14.462 0.247-26.7-3.155-36.712-10.201-9.889-7.046-15.697-16.561-17.427-28.551-2.472-15.698 8.035-28.059 31.521-37.083l13.905-5.004c28.306-10.136 48.083-22.069 59.331-35.789 11.248-13.597 16.194-29.724 14.834-48.389-1.236-15.204-6.246-28.492-15.022-39.864-8.776-11.248-20.95-19.966-36.524-26.147-15.451-6.18-32.511-9.143-51.176-8.896-17.676 0.124-33.745 3.831-48.207 11.124-14.339 7.293-25.339 17.366-33.002 30.221-7.664 12.979-11.184 27.687-10.566 44.127l45.796-0.182c-0.989-15.327 2.778-27.131 11.307-35.413s20.767-12.547 36.712-12.794c14.833-0.247 27.194 2.903 37.083 9.454 10.012 6.551 16.008 15.885 17.986 27.999 2.719 17.8-6.984 31.023-29.11 39.676l-15.017 5.562c-27.936 9.765-47.777 21.322-59.519 34.672s-17.058 28.867-15.946 46.543c0.989 15.327 6.181 28.797 15.575 40.417 9.518 11.743 22.002 20.766 37.453 27.070s31.89 9.273 49.318 8.902zM811.818 696.763c16.811-0.371 31.771-4.079 44.873-11.124 13.103-6.922 23.111-16.626 30.033-29.11 6.922-12.361 10.137-26.517 9.643-42.463l-45.608 0.188c0.865 14.091-2.291 25.033-9.46 32.82-7.046 7.787-17.735 11.865-32.073 12.236-14.462 0.247-26.7-3.155-36.712-10.201-9.889-7.046-15.697-16.561-17.427-28.551-2.472-15.698 8.029-28.059 31.515-37.083l13.911-5.004c28.306-10.136 48.083-22.069 59.331-35.789 11.248-13.597 16.194-29.724 14.834-48.389-1.236-15.204-6.246-28.492-15.022-39.864-8.776-11.248-20.95-19.966-36.524-26.147-15.451-6.18-32.511-9.143-51.176-8.896-17.676 0.124-33.745 3.831-48.207 11.124-14.339 7.293-25.339 17.366-33.002 30.221-7.664 12.979-11.184 27.687-10.566 44.127l45.796-0.182c-0.989-15.327 2.778-27.131 11.307-35.413s20.767-12.547 36.712-12.794c14.833-0.247 27.194 2.903 37.083 9.454 10.012 6.551 16.008 15.885 17.986 27.999 2.719 17.8-6.984 31.023-29.11 39.676l-15.017 5.562c-27.936 9.765-47.777 21.322-59.519 34.672s-17.058 28.867-15.946 46.543c0.989 15.327 6.181 28.797 15.575 40.417 9.518 11.743 22.002 20.766 37.453 27.070s31.889 9.273 49.318 8.902zM402.614 693.053h58.22l39.493-206.551 111.060 206.551h60.072l-46.72-269.963h-45.614l15.763 91.411 23.912 112.548-111.243-203.958h-33.008l-41.346 210.073-16.875-123.484-15.017-86.589h-45.608l46.908 269.963z" />
<glyph unicode="&#xe905;" glyph-name="slack" d="M421.504 490.88l44.16-131.627 136.747 45.824-44.16 131.157-136.747-46.080v0.725zM803.157 360.32l-66.347-22.229 23.040-68.693c9.301-27.733-5.76-57.813-33.536-67.157-6.4-1.92-12.16-2.859-18.56-2.688-21.803 0.64-41.643 14.421-49.28 36.224l-23.040 68.565-136.96-45.781 22.997-68.608c9.003-27.819-5.76-57.941-33.877-67.2-6.4-2.048-12.16-2.859-18.56-2.731-21.76 0.64-41.643 14.507-49.323 36.267l-22.997 69.077-66.603-22.357c-6.4-1.92-12.16-2.603-18.56-2.603-21.803 0.683-41.643 14.72-49.28 36.48-9.6 28.16 5.76 58.197 33.28 67.2l66.56 22.4-42.112 131.755-66.176-22.4c-6.016-2.048-12.16-2.816-18.261-2.731-21.12 0.683-41.6 14.421-48.683 36.181-8.917 27.733 5.76 57.771 33.963 67.157l66.56 22.187-23.040 68.48c-8.96 27.904 5.803 57.984 33.963 67.2 28.117 9.387 58.155-5.803 67.157-33.408l22.997-68.608 136.32 45.824-23.040 68.48c-8.917 27.52 5.76 57.6 33.664 67.157 27.819 9.003 57.984-5.76 67.2-33.749l23.040-69.163 66.347 21.76c27.776 9.344 57.856-5.76 67.2-33.237 9.301-27.904-5.76-57.984-33.451-67.2l-66.432-22.357 44.16-131.669 66.176 22.016c27.819 9.003 57.941-5.76 67.2-33.92 9.387-28.16-5.76-58.24-33.237-67.157l-0.469 1.237zM981.12 588.843c-105.6 351.701-258.091 433.92-609.963 328.277-351.701-105.557-433.92-257.963-328.277-609.963 105.6-351.787 257.963-433.92 609.963-328.277 351.787 105.6 433.92 257.963 328.277 609.963z" />
<glyph unicode="&#xe906;" glyph-name="telegram" d="M385.195 70.955c-30.464 0-25.301 11.563-35.797 40.491l-89.728 295.253 690.219 409.515zM385.195 70.955c23.552 0 33.92 10.752 47.147 23.595l125.483 121.899-156.629 94.464zM401.195 310.912l379.307-280.235c43.307-23.893 74.581-11.563 85.333 40.192l154.453 727.595c15.872 63.445-24.064 92.117-65.451 73.387l-906.837-349.739c-61.867-24.832-61.568-59.392-11.264-74.795l232.747-72.533 538.624 339.755c25.387 15.36 48.768 7.125 29.611-9.899z" />
<glyph unicode="&#xe907;" glyph-name="zendesk" d="M472.96 59.947h-472.96l472.96 571.008v-571.008zM1024 59.947h-472.96c0 130.688 105.771 236.501 236.501 236.501 130.688 0 236.459-105.899 236.459-236.501zM551.040 264.917v571.136h472.96l-472.96-571.136zM472.96 836.053c0-130.603-105.856-236.544-236.501-236.544-130.56 0-236.459 105.856-236.459 236.459l472.96 0.085z" />
<glyph unicode="&#xe908;" glyph-name="webhook" horiz-adv-x="1097" d="M512.168 529.392c-45.458-76.418-89.010-150.42-133.47-223.865-11.418-18.856-17.069-34.216-7.948-58.183 25.184-66.213-10.343-130.647-77.112-148.136-62.969-16.5-124.319 24.884-136.812 92.301-11.071 59.67 35.236 118.166 101.028 127.494 5.51 0.788 11.14 0.878 20.403 1.572l100.077 167.815c-62.943 62.588-100.407 135.746-92.117 226.405 5.861 64.083 31.063 119.464 77.121 164.854 88.218 86.924 222.802 100.998 326.675 34.28 99.76-64.087 145.45-188.92 106.504-295.763-29.366 7.961-58.937 15.99-91.444 24.807 12.228 59.404 3.183 112.746-36.881 158.445-26.47 30.171-60.437 45.985-99.057 51.812-77.429 11.697-153.449-38.046-176.007-114.045-25.604-86.247 13.149-156.705 119.040-209.799zM641.992 619.765c32.027-56.5 64.546-113.852 96.774-170.677 162.896 50.398 285.716-39.777 329.777-136.32 53.222-116.62 16.838-254.743-87.682-326.692-107.284-73.856-242.961-61.238-338.012 33.638 24.225 20.278 48.569 40.647 74.58 62.408 93.882-60.805 175.994-57.943 236.954 14.062 51.984 61.427 50.857 153.016-2.635 213.153-61.731 69.396-144.417 71.512-244.366 4.897-41.461 73.556-83.642 146.525-123.792 220.613-13.539 24.97-28.483 39.46-58.997 44.743-50.955 8.835-83.852 52.592-85.827 101.615-1.941 48.483 26.624 92.309 71.268 109.383 44.225 16.919 96.123 3.265 125.87-34.336 24.31-30.72 32.035-65.296 19.242-103.183-3.556-10.566-8.162-20.788-13.153-33.308zM718.539 157.897h-196.101c-18.796-77.309-59.396-139.726-129.349-179.417-54.383-30.848-112.995-41.307-175.377-31.234-114.859 18.522-208.775 121.919-217.044 238.346-9.357 131.894 81.298 249.13 202.134 275.463 8.342-30.296 16.774-60.883 25.116-91.105-110.865-56.564-149.237-127.832-118.209-216.949 27.314-78.423 104.901-121.41 189.147-104.786 86.033 16.975 129.409 88.475 124.113 203.222 81.56 0 163.188 0.844 244.756-0.416 31.851-0.501 56.44 2.802 80.433 30.883 39.503 46.204 112.215 42.035 154.76-1.602 43.479-44.597 41.397-116.354-4.614-159.070-44.392-41.217-114.524-39.015-156.058 5.398-8.535 9.152-15.261 20.021-23.706 31.268z" />
<glyph unicode="&#xe909;" glyph-name="pushbullet" d="M512 960c-282.768 0-512-229.232-512-512s229.232-512 512-512c282.768 0 512 229.232 512 512s-229.232 512-512 512zM308 702.932h13.336c66.932 0 66.932 0 66.932-66.932v-367.468c0-66.932 0-66.932-66.932-66.932h-13.336c-66.932 0-66.932 0-66.932 66.932v367.468c0 66.932 0 66.932 66.932 66.932zM484.164 702.932h150.148c128.712 0 210.512-129.092 210.512-252.1s-82.512-249.232-210.512-249.232h-150.148c-22.796 0-34.032 11.236-34.032 34.032v433.272c0 22.792 11.236 34.028 34.032 34.028z" />
<glyph unicode="&#xe90a;" glyph-name="email" d="M512.021 960c-0.002 0-0.005 0-0.008 0-282.777 0-512.013-229.236-512.013-512.013 0-0.003 0-0.006 0-0.008v0c0.020-282.762 229.248-511.979 512.013-511.979 0.003 0 0.006 0 0.008 0v0c0.002 0 0.005 0 0.008 0 282.765 0 511.993 229.216 512.013 511.977v0.002c0 0.002 0 0.005 0 0.008 0 282.777-229.236 512.013-512.013 512.013-0.003 0-0.006 0-0.008 0v0zM515.875 797.59c172.986 0 324.563-149.864 344.259-323.278 1.285-11.133 1.712-21.837 1.712-31.685 0-89.062-50.526-177.268-145.154-177.268-41.962 0-75.788 17.555-99.767 48.385-29.116-25.691-68.509-45.387-115.609-45.387-103.62 0-182.406 82.639-182.406 186.26 0 92.916 81.783 178.98 173.842 178.98 38.108 0 72.363-9.848 101.051-28.26 5.994 17.127 21.837 29.117 40.249 29.117 23.55 0 42.818-19.268 42.818-42.818v-209.81c0-14.986 18.84-29.545 39.821-29.545 39.821 0 58.661 44.959 58.661 89.919 0 146.438-126.742 266.33-259.479 266.33-155.431 0-268.471-124.601-268.471-258.622 0-142.157 105.333-264.189 255.197-264.189 30.401 0 61.23 5.995 93.772 17.127 10.276 3.425 19.268 5.994 27.832 5.994 22.694 0 34.255-17.127 34.255-39.821 0-22.266-11.989-39.393-32.542-47.1-41.534-15.843-82.639-23.55-123.317-23.55-197.821 0-340.405 164.85-340.405 350.254 0 174.271 146.010 348.969 353.679 348.969zM497.891 547.103c-50.954 0-93.344-44.103-93.344-95.913 0-51.382 37.68-96.769 93.344-96.769 53.951 0 93.772 41.962 94.628 95.485-0.427 53.951-41.962 97.197-94.628 97.197z" />
<glyph unicode="&#xe90b;" glyph-name="pd" d="M53.617-63.015c-27.788 5.627-48.529 27.202-52.835 54.958-0.724 4.665-0.899 118.139-0.712 459.856 0.231 421.639 0.346 453.984 1.633 458.22 5.536 18.216 14.264 30.342 28.605 39.742 6.169 4.043 11.665 6.429 20.417 8.862 4.601 1.279 37.805 1.378 461.513 1.378s456.912-0.099 461.513-1.378c8.751-2.433 14.248-4.818 20.417-8.862 14.414-9.447 24.012-22.869 28.399-39.709 1.776-6.82 1.776-917.123 0-923.943-4.386-16.84-13.985-30.262-28.399-39.709-5.92-3.88-10.942-6.105-19.991-8.855-4.238-1.288-36.485-1.394-459.873-1.516-373.601-0.107-456.279 0.060-460.687 0.956zM248.634 212.985l0.413 61.976 80.155 0.458c77.316 0.442 80.419 0.519 87.592 2.174 22.184 5.117 37.49 13.34 50.981 27.388 13.323 13.874 20.863 28.902 25.204 50.239 1.383 6.796 1.492 13.722 1.492 94.512v87.179l-2.2 9.090c-8.679 35.863-30.191 59.669-63.4 70.16-16.056 5.072-15.422 5.037-91.819 5.037-64.782 0-70.423-0.112-78.090-1.549-39.016-7.315-66.791-30.777-77.947-65.844-5.326-16.741-5.1-7.262-5.1-214.281 0-103.305 0.252-188.079 0.56-188.387s16.576-0.463 36.153-0.344l35.593 0.215zM249.205 349.449c-0.314 0.314-0.571 39.848-0.571 87.852 0 94.641-0.088 92.685 4.489 99.934 2.301 3.645 5.234 5.942 10.969 8.59l3.961 1.829 64.455 0.241c44.148 0.165 66.164-0.047 69.88-0.668 3.040-0.51 7.282-1.97 9.649-3.322 3.576-2.042 4.645-3.267 6.97-7.991l2.746-5.578v-80.999c0-77.075-0.075-81.215-1.55-85.45-2.087-5.993-6.179-10.331-11.942-12.661l-4.687-1.895-76.898-0.227c-42.294-0.125-77.156 0.027-77.47 0.344zM753.943 275.398c27.346 2.553 49.537 12.642 66.583 30.274 13.182 13.635 21.487 30.284 25.294 50.707 1.362 7.309 1.476 20.308 1.714 196.234 0.14 103.624 0.047 189.247-0.204 190.274l-0.459 1.868-71.443-0.431-0.413-61.149c-0.227-33.632-0.714-61.614-1.082-62.182-0.527-0.814-16.992-1.036-77.676-1.049-46.572-0.007-79.294-0.342-82.792-0.839-44.3-6.298-74.964-36-82.762-80.166-1.415-8.016-1.525-14.636-1.525-92.098 0-78.113 0.099-83.99 1.549-91.724 4.041-21.557 11.875-37.286 25.656-51.515 15.905-16.423 37.643-26.069 63.538-28.195 11.837-0.972 123.628-0.979 134.022-0.007zM621.752 348.961c-10.228 1.74-15.763 6.135-18.377 14.591-1.378 4.457-1.479 10.206-1.479 83.702 0 74.275 0.089 79.207 1.52 83.874 1.94 6.326 7.2 11.696 13.774 14.061 4.375 1.574 7.258 1.641 80.311 1.871 75.558 0.238 75.775 0.234 76.675-1.448 0.641-1.198 0.828-27.011 0.647-89.067-0.293-99.985 0.242-92.831-7.52-100.546-7.932-7.884-3.771-7.475-77.401-7.615-35.223-0.067-65.89 0.193-68.15 0.578z" />
<glyph unicode="&#xe90c;" glyph-name="discord" d="M862.805 960c59.989 0 108.373-48.512 111.232-105.6v-918.4l-114.219 96.981-62.72 57.088-68.437 59.648 28.587-94.080h-598.955c-59.819 0-108.373 45.44-108.373 105.643v692.907c0 57.088 48.64 105.685 108.587 105.685l704.299 0.128zM601.771 717.525h-1.28l-8.619-8.533c88.448-25.6 131.243-65.579 131.243-65.579-57.003 28.501-108.373 42.752-159.744 48.512-37.12 5.76-74.24 2.731-105.6 0h-8.533c-20.053 0-62.72-8.533-119.893-31.36-19.925-8.661-31.36-14.336-31.36-14.336s42.752 42.752 136.96 65.579l-5.76 5.76s-71.339 2.731-148.352-54.187c0 0-77.013-134.144-77.013-299.52 0 0 42.667-74.24 159.701-77.056 0 0 17.067 22.741 34.347 42.752-65.707 19.968-91.307 59.904-91.307 59.904s5.717-2.816 14.293-8.533h2.56c1.28 0 1.877-0.64 2.56-1.28v-0.256c0.683-0.683 1.28-1.28 2.56-1.28 14.080-5.803 28.16-11.52 39.68-17.067 19.883-8.619 45.44-17.195 76.8-22.869 39.68-5.76 85.163-8.533 136.96 0 25.6 5.76 51.2 11.392 76.8 22.827 16.64 8.533 37.12 17.067 59.605 31.445 0 0-25.6-39.936-94.080-59.904 14.080-19.883 33.92-42.667 33.92-42.667 117.077 2.56 162.56 76.8 165.12 73.643 0 165.12-77.44 299.52-77.44 299.52-69.76 51.797-135.040 53.76-146.56 53.76l2.389 0.853zM608.939 529.237c29.995 0 54.187-25.6 54.187-56.96 0-31.573-24.32-57.173-54.187-57.173s-54.187 25.6-54.187 56.917c0.085 31.573 24.448 57.088 54.187 57.088zM415.104 529.237c29.867 0 54.016-25.6 54.016-56.96 0-31.573-24.32-57.173-54.187-57.173s-54.187 25.6-54.187 56.917c0 31.573 24.32 57.088 54.187 57.088z" />
<glyph unicode="&#xe90d;" glyph-name="pagertree" d="M470.394-62.685c-95.397 7.956-186.012 42.111-263.443 99.298-32.786 24.214-81.982 73.41-106.196 106.196-123.188 166.798-134.352 390.724-28.321 568.046 28.248 47.24 73.096 99.21 115.361 133.678 103.768 84.627 238.984 125.778 372.152 113.26 132.638-12.468 258.317-77.974 342.723-178.631 132.11-157.548 158.947-375.11 68.703-556.961-69.203-139.453-191.957-237.364-342.328-273.046-45.324-10.755-111.997-15.731-158.651-11.84zM415.329 3.162c4.619 4.619 4.703 7.838 4.703 179.891 0 205.49 3.397 184.594-30.009 184.594h-20.603l-73.578 74.073 0.288 13.226c0.386 17.719-7.627 30.384-22.918 36.224-17.585 6.716-32.828 1.972-44.683-13.907-6.798-9.106-6.798-31.411 0-40.516 9.452-12.66 16.628-16.19 32.908-16.19h15.061l23.561-23.471c12.959-12.909 23.561-24.814 23.561-26.455 0-2.274-8.174-2.983-34.388-2.983h-34.388l-44.975 43.926c-24.736 24.159-46.234 45.438-47.773 47.287-1.765 2.12-2.309 7.489-1.474 14.538 2.518 21.261-7.772 37.090-27.58 42.423-26.092 7.026-51.487-18.664-44.472-44.989 4.718-17.706 18.837-27.848 39.056-28.053l11.402-0.116 103.467-100.778 70.941-0.053c39.018-0.027 72.615-0.695 74.661-1.48 3.295-1.264 3.72-10.932 3.72-84.655 0-45.775-0.81-83.227-1.8-83.227s-14.2 12.434-29.355 27.63l-27.554 27.63 1.421 11.979c3.65 30.773-26.106 52.093-53.232 38.142-11.381-5.853-21.164-20.869-21.164-32.485 0-3.332 2.381-10.78 5.291-16.55 6.61-13.107 21.363-21.456 36.565-20.691l10.111 0.508 79.718-79.615v-60.578c0-57.442 0.243-60.821 4.703-65.28 2.587-2.587 6.819-4.703 9.406-4.703s6.819 2.116 9.406 4.703zM292.042 239.657c-2.032 2.032-3.695 4.602-3.695 5.711 0 2.146 6.601 9.406 8.553 9.406 3.979 0 10.259-5.521 10.259-9.018 0-8.951-8.739-12.477-15.117-6.098zM253.544 450.42c-5.416 5.416-1.639 15.99 5.711 15.99 3.301 0 10.279-6.386 10.279-9.406s-6.979-9.406-10.279-9.406c-1.589 0-4.159 1.27-5.711 2.822zM116.715 475.763c-1.979 3.698-1.504 5.634 2.323 9.46s5.762 4.302 9.46 2.323c5.214-2.791 6.094-9.343 1.827-13.61s-10.819-3.387-13.61 1.827zM610.504 14.919c4.545 4.545 4.703 7.838 4.703 98.094v93.391l74.143 74.143 14.601-0.205c25.254-0.356 40.589 13.528 40.589 36.747 0 22.787-16.041 37.518-39.016 35.828-21.672-1.594-33.882-15.819-33.882-39.474v-12.342l-25.143-25.515c-13.829-14.033-26.527-25.515-28.218-25.515-2.403 0-3.075 8.14-3.075 37.236v37.237l79.582 78.376h168.799l6.907-7.264c10.585-11.134 18.924-14.586 32.162-13.313 25.896 2.488 40.497 25.906 31.249 50.121-8.118 21.256-34.173 29.835-53.789 17.712-4.79-2.96-10.297-8.455-12.239-12.21l-3.531-6.828h-46.97c-25.833 0-46.97 0.767-46.97 1.705s7.114 8.874 15.81 17.636c15.618 15.738 15.963 15.932 28.451 15.932 23.391 0 37.846 11.927 39.86 32.891 3.828 39.839-48.327 56.036-68.61 21.306-3.4-5.822-4.629-11.82-4.366-21.315l0.366-13.213-55.014-54.577-42.737-1.539-46.502-44.679c-25.576-24.573-47.441-47.129-48.589-50.123-3.272-8.531-2.685-310.010 0.616-316.281 5.217-9.912 13.318-11.454 20.812-3.961zM700.65 312.548c-2.196 5.722 2.299 11.595 8.874 11.595 4.68 0 5.623-1.183 5.623-7.055 0-5.951-1.013-7.171-6.48-7.8-4.412-0.507-6.97 0.532-8.017 3.259zM892.78 413.389c-5.603 6.751 2.127 17.105 10.399 13.931 8.556-3.283 5.769-17.345-3.438-17.345-2.27 0-5.402 1.536-6.961 3.414zM810.666 498.805c-3.11 5.812 1.006 12.285 7.813 12.285 6.089 0 9.223-5.349 7.084-12.089-1.791-5.643-11.911-5.776-14.898-0.196zM510.432 90.691c3.219 4.595 3.661 23.028 3.661 152.675v147.449l68.191 1.523 255.159 255.14h10.218c20.946 0 35.506 12.792 37.437 32.891 2.168 22.563-13.483 40.014-35.872 39.998-25.038-0.018-42.584-22.041-36.263-45.513l2.513-9.333-246.106-246.139h-54.884l-1.57 56.378-58.625 58.753 16.044 16.553h54.646c32.746 0 57.269 0.997 61.192 2.489 3.6 1.369 32.865 29.411 65.033 62.315l58.487 59.827h10.993c14.97 0 26.034 6.429 32.798 19.060 6.543 12.219 6.034 27.209-1.259 37.057-16.761 22.633-45.778 22.438-62.716-0.423-5.106-6.891-6.694-23.855-3.139-33.538 1.522-4.145-6.625-13.507-53.712-61.727l-55.506-56.842h-37.409c-20.575 0-37.409 0.824-37.409 1.832s6.614 8.355 14.697 16.329c14.633 14.434 14.754 14.496 27.779 14.156 22.906-0.597 37.538 12.105 39.183 34.017 1.801 23.988-14.745 40.514-38.841 38.794-21.886-1.562-34.611-16.199-34.022-39.136l0.336-13.082-77.389-77.506-45.771 45.771 139.515 139.515 13.711-0.459c17.147-0.573 28.16 4.884 35.424 17.554 14.486 25.267-2.448 55.016-31.317 55.016-13.298 0-23.907-5.614-32.482-17.188-3.722-5.024-4.85-9.905-4.707-20.379l0.187-13.772-69.85-69.821c-60.719-60.693-70.43-69.504-74.285-67.401-2.439 1.331-18.583 16.74-35.874 34.243-29.54 29.9-31.319 32.22-29.447 38.398 3.697 12.2 2.415 28.142-2.834 35.227-16.938 22.86-45.955 23.056-62.716 0.423-16.269-21.968 1.935-56.117 29.915-56.117 9.188 0 11.071-1.699 96.914-87.429 48.149-48.086 87.008-88.297 86.352-89.358s-19.93-1.928-42.832-1.928h-41.64l-88.541 85.83 2.925 10.673c5.502 20.074-1.856 36.619-19.939 44.831-12.411 5.637-18.781 5.553-31.099-0.411-18.208-8.814-25.864-29.208-17.805-47.427 6.006-13.577 16.615-21.037 31.971-22.48l12.045-1.132 96.866-95.752h63.328c53.511 0 64.139-0.568 68.555-3.661l5.226-3.661v-183.937c0-202.649-0.599-194.39 14.109-194.39 4.349 0 8.103 1.878 10.448 5.226zM235.605 599.439c-2.032 2.032-3.695 4.602-3.695 5.711 0 2.146 6.601 9.406 8.553 9.406 3.979 0 10.259-5.521 10.259-9.018 0-8.951-8.739-12.477-15.117-6.098zM542.31 642.774c-3.826 3.826-4.302 5.762-2.323 9.46 2.791 5.214 9.343 6.094 13.61 1.827s3.387-10.819-1.827-13.61c-3.698-1.979-5.634-1.504-9.46 2.323zM841.235 679.872c-3.13 5.849 1.022 12.285 7.926 12.285 6.945 0 9.132-3.231 7.253-10.715-1.748-6.963-11.74-7.996-15.179-1.569zM257.613 707.638c-4.125 4.97-0.010 11.56 7.218 11.56s11.343-6.591 7.218-11.56c-1.7-2.048-4.948-3.724-7.218-3.724s-5.518 1.676-7.218 3.724zM713.808 707.638c-4.125 4.97-0.009 11.56 7.218 11.56s11.343-6.591 7.218-11.56c-1.7-2.048-4.948-3.724-7.218-3.724s-5.518 1.676-7.218 3.724zM537.89 771.581c-3.127 5.843 1.019 12.285 7.907 12.285 3.582 0 6.155-1.737 7.132-4.816 3.060-9.64-10.32-16.285-15.039-7.469z" />
<glyph unicode="&#xe90e;" glyph-name="po" d="M495.997 953.405c-141.739-4.445-268.129-66.64-357.064-163.715l-0.342-0.378c-81.965-89.463-132.19-209.178-132.19-340.623 0-147.43 63.183-280.103 163.948-372.418l0.377-0.341c89.463-81.965 209.178-132.191 340.625-132.191 147.429 0 280.102 63.182 372.416 163.947l0.341 0.377c81.965 89.463 132.19 209.178 132.19 340.623 0 147.43-63.183 280.103-163.948 372.418l-0.377 0.341c-89.463 81.967-209.18 132.193-340.627 132.193-5.398 0-10.776-0.085-16.133-0.253l0.783 0.019zM614.591 758.362c32.229 0 59.316-4.581 81.259-13.744 21.955-9.173 39.041-21.263 51.266-36.266s19.864-32.505 22.914-52.508c3.062-20.004 2.091-40.841-2.91-62.512-6.112-26.115-17.644-52.375-34.598-78.774-16.942-26.388-38.19-50.283-63.751-71.681-25.561-21.387-54.876-38.747-87.944-52.083-33.055-13.336-68.199-20.003-105.429-20.003h-4.166l-105.854-237.545h-120.023l235.88 530.096 126.688 16.671-123.355-278.385c21.671 1.667 42.922 9.028 63.754 22.080 20.842 13.064 40.020 29.456 57.528 49.176 17.498 19.732 32.636 41.678 45.415 65.844 12.78 24.176 21.948 47.935 27.505 71.272 3.334 14.447 4.864 28.339 4.591 41.674-0.284 13.336-3.757 25.005-10.425 35.007s-16.812 18.061-30.432 24.173c-13.608 6.112-32.081 9.166-55.419 9.166-27.228 0-54.039-4.444-80.439-13.336-26.388-8.891-50.84-21.81-73.349-38.764-22.499-16.942-42.081-38.057-58.751-63.346-16.67-25.277-28.616-54.030-35.841-86.259-2.778-10.558-4.444-19.028-5-25.412-0.556-6.396-0.693-11.675-0.409-15.837 0.272-4.173 0.823-7.368 1.651-9.591 0.839-2.223 1.533-4.445 2.090-6.668-28.339 0-49.039 5.696-62.103 17.093-13.052 11.385-16.243 31.249-9.575 59.588 6.668 29.449 21.81 57.508 45.432 84.179 23.61 26.672 51.665 50.151 84.166 70.439 32.511 20.276 68.075 36.385 106.688 48.326 38.625 11.953 76.27 17.93 112.944 17.93z" />
<glyph unicode="&#xe90f;" glyph-name="victorops" d="M512 960c-281.6 0-512-230.4-512-512s230.4-512 512-512c281.6 0 512 230.4 512 512s-230.4 512-512 512zM517.117 878.078l38.406-107.516 43.516 12.797-33.281-87.039 7.68-58.883 107.523 107.523-28.164-107.523 7.68-15.359-58.875-92.156 5.117-28.164 204.805 92.164-74.242-99.844 28.156-56.32-156.156-74.234-2.562-25.602 120.32 35.836-58.883-71.68-5.117-23.039-74.242-30.719-7.68-20.477 33.281 12.797-87.039-97.281-7.68-79.359v-74.242h-15.359v71.68l-5.117 81.922-87.047 97.281 33.281-12.797-7.68 20.477-74.234 30.719-5.125 23.039-58.875 71.68 120.32-35.836-2.563 25.602-156.164 74.234 35.844 56.32-74.242 99.844 204.805-92.164 5.117 28.164-58.883 92.156 7.68 15.359-28.156 107.523 107.516-107.523 7.68 58.883-33.273 87.039 43.516-12.797 38.398 107.516z" />
<glyph unicode="&#xe910;" glyph-name="opsgenie" d="M512 960c-282.768 0-512-229.232-512-512s229.232-512 512-512c282.768 0 512 229.232 512 512s-229.232 512-512 512zM495.383 948.391l30.367-37.445c0 0 7.253-8.951 10.758-22.234 3.255-12.334 2.809-29.959-7.141-47.32l13.531 2.844c32.791 6.889 66.948-2.705 93.945-21.547s47.633-47.728 50.227-81.617l-29.672-9.445c-26.13 43.575-68.24 62.829-117.078 82.070l-14.922 5.883c0.834-2.752 1.891-5.781 1.891-5.781l30.148-54.023-17.68 10.984c2.603-8.385 2.762-17.111 2.563-26.313-0.275-12.669-2.528-25.181-7.719-36.484 34.914-8.778 59.267-22.599 74.531-43.477 8.387-11.47 13.717-24.424 17.539-38.672 12.752 22.768 22.966 48.621 30.305 77.68l31.508-4.43c-2.381-73.83-26.175-120.553-73.156-155.898l-23.937-18.008-1.656 29.906c-1.456 26.262-4.843 50.034-14.461 70.43s-25.144 38.148-54.391 53.508l6.281 16.719c-6.554-6.579-15.462-10.447-24.266-10.32-11.75 0.168-22.661 6.567-29.648 16.508-8.886 12.638-11.428 27.924-10.898 42.922 0.529 15.001 4.106 30.041 13.969 41.945h0.008c5.104 6.156 12.225 10.734 19.867 12.617-3.339 2.91-7.009 6.168-10.5 10.906-4.247 5.764-8.275 13.225-9.469 22.461s1.062 19.955 7.258 29.336c15.019 22.741 13.852 38.125 13.852 38.125l-1.953 48.172zM457.164 842.617l11.641-28.938c-35.17-24.457-61.217-53.654-67.016-99.367-4.035-31.823-0.717-63.517 8.141-95.078 0.862-3.070 1.781-6.193 2.664-9.273 5.501 27.020 19.848 54.466 43.797 81.469l26.547-17.211c-17.941-39.65-24.277-67.814-20.008-93.922s19.673-52.577 50.789-87.469l-20.141-24.391c-12.069 7.204-22.848 14.899-32.539 22.969l-16.906-38.57c-8.287-18.91-21.003-34.435-36.875-46.672-24.642-18.997-52.489-28.874-79.508-36.773-26.367-7.711-52.851-15.207-79.492-22.25-15.792-4.175-26.281-10.884-33.375-19.727s-11.269-20.414-11.898-36.344c-1.008-25.485 0.648-51.913 1.156-80.688l1.055-59.766-30.766 51.25c-18.686 31.12-37.679 64.942-39.688 106.539-1.651 34.274 15.93 62.961 45.219 79.016v-0.008c23.426 12.844 48.363 17.632 72.398 20.273 39.239 4.306 76.612 12.084 110.328 29.242 18.845 9.591 37.246 22.81 58.344 35.922l36.078 22.414c-24.805 21.848-41.242 46.521-46.148 74.164-0.826 4.652-1.268 9.34-1.453 14.047l-19.055-9.125c-29.818 42.373-51.69 90.897-47.047 147.508 2.319 28.257 18.219 55.301 39.102 77.258s47.038 39.123 74.656 43.5zM586.336 490.391l19.969-17.898c46.577-41.765 103.259-57.55 166.203-65.32 21.030-2.594 42.295-7.902 62.086-16.016 18.984-7.782 34.064-19.927 43.234-35.852s12.119-34.924 9.859-55.062c-4.221-37.635-21.318-69.699-42.055-98.531l-27.195 16.711c1.625 3.133 4.464 22.376 4.195 35.969-0.38 19.329-1.923 40.502-5.617 58.406-2.954 14.317-11.918 23.384-27.922 28.484-26.183 8.341-53.183 15.682-80.242 24.406-21.345 6.882-43.337 13.9-64.867 23.234-24.373 10.566-44.874 27.966-58.914 51.312h-0.008v0.008c-1.988 3.31-3.731 6.805-5.18 10.453l-0.016 0.031-0.008 0.023c-2.683 6.832-0.709 10.745-0.234 12.266s0.532 1.7 0.437 1.305l6.273 26.070zM354.375 324.844c23.935 0.095 47.809-3.628 71.352-11.805l-5.258-25.375c34.753 11.803 70.997 19.494 106.859 19.992 58.332 0.81 124.732-31.934 169.859-60.227 0.371-0.233 0.858-0.471 1.227-0.703l-15.828-27.773c-34.072 17.473-58.857 23.082-92.32 29.477-38.314 7.318-77.564 7.713-115.953 1.039-42.665-7.42-103.194-24.248-133.297-33.008l-12.492 29.203c24.064 13.944 50.669 26.201 78.148 36.547-51.852 2.32-96.396-5.678-132.656-46.914l-37.344-42.469 9.555 55.742c7.106 41.435 40.632 70.255 84.203 74.93 7.984 0.858 15.967 1.312 23.945 1.344zM537.414 187.75c50.711-36.067 106.904-64.631 170.977-78.609l47.477-10.359-44.344-19.875c-10.521-4.716-20.742-10.556-33.070-14.367s-27.352-4.76-42.648 1.070c-47.215 17.993-86.476 49.949-114.727 91.742-34.219-47.839-81.731-84.28-141.695-98.625l-5.172-1.242-4.891 2.109c-13.876 5.986-27.016 11.651-44.078 19.008l-46.18 19.906 49.195 10.438c65.628 13.918 124.592 41.606 176.227 77.844l15.602-15.227 17.328 16.188z" />
<glyph unicode="&#xe911;" glyph-name="trello" d="M896 960h-768c-70.699 0-128-57.301-128-128v-768c0-70.656 57.301-128 128-128h768c70.656 0 128 57.344 128 128v768c0 70.699-57.344 128-128 128zM445.44 184.32c0-33.92-27.52-61.44-61.44-61.44h-189.44c-33.92 0-61.44 27.563-61.44 61.44v581.12c0 33.92 27.52 61.44 61.44 61.44h189.44c33.92 0 61.44-27.52 61.44-61.44v-581.12zM890.88 440.32c0-33.877-27.52-61.44-61.44-61.44h-189.44c-33.92 0-61.44 27.563-61.44 61.44v325.12c0 33.92 27.563 61.44 61.44 61.44h189.44c33.92 0 61.44-27.52 61.44-61.44v-325.12z" />
</font>
</defs>
</svg>
