<?xml version="1.0" standalone="no"?>
<!DOCTYPE svg PUBLIC "-//W3C//DTD SVG 1.1//EN" "http://www.w3.org/Graphics/SVG/1.1/DTD/svg11.dtd" >
<svg>
<metadata>
Created by FontForge 20090622 at Tue Jan 26 15:49:15 2016
 By deploy user
Copyright 2010, 2012 Adobe Systems Incorporated. All Rights Reserved.
</metadata>
<defs>
<font id="SourceCodePro-Bold" horiz-adv-x="600" >
  <font-face 
    font-family="Source Code Pro"
    font-weight="700"
    font-stretch="normal"
    units-per-em="1000"
    panose-1="2 11 7 9 3 4 3 2 2 4"
    ascent="750"
    descent="-250"
    x-height="496"
    cap-height="652"
    bbox="-69 -400 705 1000"
    underline-thickness="50"
    underline-position="-50"
    unicode-range="U+000D-U+FB02"
  />
<missing-glyph 
d="M35 660h530v-660h-530v660zM228 340l-94 186v-371zM466 155v371l-94 -186zM382 91l-39 77l-41 98h-4l-41 -98l-39 -77h164zM302 414l42 95l32 59h-152l31 -59l43 -95h4z" />
    <glyph glyph-name=".notdef" 
d="M35 660h530v-660h-530v660zM228 340l-94 186v-371zM466 155v371l-94 -186zM382 91l-39 77l-41 98h-4l-41 -98l-39 -77h164zM302 414l42 95l32 59h-152l31 -59l43 -95h4z" />
    <glyph glyph-name="NULL" horiz-adv-x="0" 
 />
    <glyph glyph-name="NULL" horiz-adv-x="0" 
 />
    <glyph glyph-name="CR" unicode="&#xd;" 
 />
    <glyph glyph-name="space" unicode=" " 
 />
    <glyph glyph-name="A" unicode="A" 
d="M366 270l-15 60q-13 49 -26 104l-26 106h-4l-25 -106.5t-26 -103.5l-15 -60h137zM396 155h-197l-40 -155h-150l203 652h176l203 -652h-156z" />
    <glyph glyph-name="B" unicode="B" 
d="M84 652h204q51 0 94.5 -7.5t75.5 -26.5t50.5 -50t18.5 -78q0 -22 -6.5 -44t-20.5 -41t-35 -34t-50 -22v-4q70 -13 106 -50t36 -103q0 -50 -19 -86t-53 -59.5t-79.5 -35t-98.5 -11.5h-223v652zM281 389q54 0 78 21.5t24 58.5t-24.5 53t-76.5 16h-51v-149h50zM295 114
q118 0 118 89q0 43 -28.5 62.5t-89.5 19.5h-64v-171h64z" />
    <glyph glyph-name="C" unicode="C" 
d="M55 322q0 81 24 144.5t66 107.5t99 67t122 23q63 0 111.5 -25.5t81.5 -57.5l-81 -91q-23 21 -50 34t-62 13t-64 -14.5t-50.5 -41.5t-33.5 -66t-12 -88q0 -101 46 -156.5t120 -55.5q35 0 63.5 16t52.5 42l81 -89q-82 -96 -206 -96q-63 0 -119 21.5t-98 63.5t-66.5 104.5
t-24.5 144.5z" />
    <glyph glyph-name="D" unicode="D" 
d="M65 652h177q71 0 129 -19t99 -58.5t63.5 -100.5t22.5 -145t-22.5 -146t-63 -102.5t-96.5 -60.5t-124 -20h-185v652zM234 119q38 0 69.5 11t54 35.5t35 64.5t12.5 99q0 58 -12.5 97.5t-35 63t-54 33.5t-69.5 10h-21v-414h21z" />
    <glyph glyph-name="E" unicode="E" 
d="M94 652h430v-124h-283v-131h240v-123h-240v-150h293v-124h-440v652z" />
    <glyph glyph-name="F" unicode="F" 
d="M108 652h430v-124h-283v-151h241v-124h-241v-253h-147v652z" />
    <glyph glyph-name="G" unicode="G" 
d="M44 322q0 82 23.5 145.5t64 107t95.5 66.5t118 23q66 0 112.5 -25.5t78.5 -57.5l-81 -91q-21 21 -46 34t-64 13q-32 0 -59 -14.5t-47 -41.5t-31.5 -66t-11.5 -88q0 -101 38.5 -156.5t116.5 -55.5q19 0 36 5t28 15v112h-95v120h227v-300q-33 -31 -87 -55t-117 -24
t-117.5 21.5t-95 63.5t-63.5 104.5t-23 144.5z" />
    <glyph glyph-name="H" unicode="H" 
d="M64 652h147v-251h178v251h147v-652h-147v272h-178v-272h-147v652z" />
    <glyph glyph-name="I" unicode="I" 
d="M74 124h152v404h-152v124h452v-124h-152v-404h152v-124h-452v124z" />
    <glyph glyph-name="J" unicode="J" 
d="M144 187q58 -72 124 -72q51 0 76 25.5t25 93.5v295h-255v123h402v-430q0 -48 -12.5 -90.5t-41.5 -74.5t-75.5 -50.5t-113.5 -18.5q-27 0 -56 5.5t-57 18.5t-54 33.5t-47 50.5z" />
    <glyph glyph-name="K" unicode="K" 
d="M68 652h149v-267h3l193 267h162l-195 -260l214 -392h-163l-138 275l-76 -100v-175h-149v652z" />
    <glyph glyph-name="L" unicode="L" 
d="M107 652h147v-528h290v-124h-437v652z" />
    <glyph glyph-name="M" unicode="M" 
d="M65 652h147l66 -231l22 -90h3l22 90l63 231h147v-652h-119v213q0 27 2 66.5t5 81.5l6 81.5t6 65.5h-3l-51 -179l-50 -155h-65l-50 155l-49 179h-4q3 -26 6 -65.5l6 -81.5t5 -81.5t2 -66.5v-213h-117v652z" />
    <glyph glyph-name="N" unicode="N" 
d="M66 652h150l138 -325l56 -143h4q-5 52 -13 116t-8 121v231h141v-652h-150l-138 325l-56 142h-4q5 -54 13 -116t8 -120v-231h-141v652z" />
    <glyph glyph-name="O" unicode="O" 
d="M300 -12q-58 0 -106.5 23.5t-83 67.5t-53.5 107t-19 143t19 142.5t53.5 105t83 65t106.5 22.5t106.5 -22.5t83 -65.5t53.5 -105.5t19 -141.5q0 -80 -19 -143t-53.5 -107t-83 -67.5t-106.5 -23.5zM300 115q51 0 81 57.5t30 156.5q0 98 -30 153t-81 55t-81 -55t-30 -153
q0 -99 30 -156.5t81 -57.5z" />
    <glyph glyph-name="P" unicode="P" 
d="M74 652h238q53 0 99.5 -10.5t81 -35t54.5 -65t20 -99.5q0 -57 -20.5 -99t-55.5 -69t-81 -40t-98 -13h-91v-221h-147v652zM303 338q119 0 119 104q0 51 -30 72t-89 21h-82v-197h82z" />
    <glyph glyph-name="Q" unicode="Q" 
d="M297 537q-52 0 -81 -55t-29 -153q0 -99 29 -156.5t81 -57.5q51 0 80.5 57.5t29.5 156.5q0 98 -29.5 153t-80.5 55zM580 -157q-17 -9 -41 -15t-55 -6q-48 0 -88 13t-72.5 36t-56.5 55.5t-39 70.5q-88 25 -140 110.5t-52 221.5q0 80 19 142.5t53 105t82 65t107 22.5
q58 0 106 -22.5t82 -65.5t53 -105.5t19 -141.5q0 -129 -47 -213.5t-128 -113.5q17 -35 50.5 -48.5t68.5 -13.5q15 0 28.5 4t24.5 9z" />
    <glyph glyph-name="R" unicode="R" 
d="M217 352h72q119 0 119 97q0 48 -30 67t-89 19h-72v-183zM419 0l-125 235h-77v-235h-147v652h231q52 0 97.5 -10t80 -33.5t54.5 -62.5t20 -97q0 -72 -32 -118.5t-84 -69.5l147 -261h-165z" />
    <glyph glyph-name="S" unicode="S" 
d="M135 183q37 -30 80.5 -49t86.5 -19q51 0 74.5 17t23.5 46q0 15 -7 26t-20 19.5t-31.5 16l-42.5 16.5l-84 36q-27 10 -52.5 26t-44.5 37.5t-30.5 50t-11.5 64.5q0 40 17.5 75.5t49 62t75.5 41.5t97 15q60 0 116 -22t101 -64l-75 -93q-34 25 -67 38.5t-75 13.5
q-43 0 -66.5 -15.5t-23.5 -43.5q0 -30 30 -45t77 -32l79 -34q65 -24 102.5 -66t37.5 -111q0 -41 -17 -77.5t-49 -64t-79 -44t-108 -16.5q-66 0 -130.5 23.5t-117.5 70.5z" />
    <glyph glyph-name="T" unicode="T" 
d="M226 528h-195v124h538v-124h-195v-528h-148v528z" />
    <glyph glyph-name="U" unicode="U" 
d="M64 652h147v-416q0 -59 22 -90t69 -31t69.5 31t22.5 90v416h142v-401q0 -128 -57.5 -195.5t-176.5 -67.5q-120 0 -179 67.5t-59 195.5v401z" />
    <glyph glyph-name="V" unicode="V" 
d="M15 652h156l78 -304q15 -54 26.5 -104.5t25.5 -104.5h4q15 54 27 104.5l26 104.5l77 304h150l-196 -652h-177z" />
    <glyph glyph-name="W" unicode="W" 
d="M4 652h150l21 -347l2 -83l2 -83h3q8 42 17.5 83t17.5 83l45 181h89l43 -181l17 -82t17 -84h4q2 42 2.5 83.5t2.5 82.5l19 347h140l-81 -652h-154l-41 205q-6 31 -11 63.5t-7 61.5h-3q-3 -29 -7.5 -61.5t-10.5 -63.5l-39 -205h-151z" />
    <glyph glyph-name="X" unicode="X" 
d="M208 335l-179 317h165l63 -123l23 -48.5l27 -56.5h4l22.5 56.5t21.5 48.5l58 123h158l-179 -324l190 -328h-164l-71 133q-14 26 -26 51.5l-26 55.5h-4q-12 -30 -24 -55.5l-24 -51.5l-68 -133h-157z" />
    <glyph glyph-name="Y" unicode="Y" 
d="M226 220l-210 432h158l66 -157q14 -38 29 -74l30 -75h4l31 75l30 74l66 157h154l-210 -432v-220h-148v220z" />
    <glyph glyph-name="Z" unicode="Z" 
d="M56 89l306 440h-277v123h458v-89l-305 -439h309v-124h-491v89z" />
    <glyph glyph-name="a" unicode="a" 
d="M61 138q0 42 18 73.5t57.5 53.5t101.5 35.5t150 18.5q-4 34 -29.5 53t-76.5 19q-36 0 -72.5 -12.5t-78.5 -33.5l-52 96q51 29 109.5 48t122.5 19q104 0 164 -55t60 -169v-284h-120l-11 56h-4q-38 -29 -83 -48.5t-93 -19.5q-38 0 -68 11.5t-51 32t-32.5 47.5t-11.5 59z
M202 149q0 -24 18.5 -35.5t50.5 -11.5q33 0 62 13.5t55 33.5v82q-55 -3 -91 -10t-57 -17.5t-29.5 -24.5t-8.5 -30z" />
    <glyph glyph-name="b" unicode="b" 
d="M72 701h147v-172l-4 -78q29 27 65.5 42t72.5 15q46 0 83.5 -18t63 -50.5t39.5 -79t14 -103.5q0 -64 -18 -114t-48 -84.5t-68.5 -52.5t-80.5 -18q-35 0 -69.5 17t-65.5 49h-4l-12 -54h-115v701zM219 141q21 -18 43.5 -25.5t42.5 -7.5q41 0 69 34.5t28 111.5q0 134 -91 134
q-47 0 -92 -46v-201z" />
    <glyph glyph-name="c" unicode="c" 
d="M67 248q0 62 23.5 110.5t63 81.5t91.5 50.5t109 17.5q59 0 106.5 -19t79.5 -48l-68 -91q-55 39 -110 39q-64 0 -104 -38t-40 -103t38.5 -103t100.5 -38q39 0 72 14t59 33l60 -93q-45 -38 -99.5 -55.5t-105.5 -17.5q-59 0 -109 17.5t-87.5 50.5t-58.5 81.5t-21 110.5z" />
    <glyph glyph-name="d" unicode="d" 
d="M47 248q0 61 18 109t47.5 81.5t67.5 51.5t79 18q43 0 72 -14.5t55 -38.5l-5 77v169h147v-701h-120l-11 51h-3q-28 -27 -64 -45t-74 -18q-47 0 -85.5 18t-66 51.5t-42.5 81.5t-15 109zM198 250q0 -74 25 -108t71 -34q25 0 46 10.5t41 35.5v201q-20 18 -40.5 25.5
t-42.5 7.5q-41 0 -70.5 -34t-29.5 -104z" />
    <glyph glyph-name="e" unicode="e" 
d="M55 248q0 61 21.5 109t57.5 81.5t82.5 51.5t96.5 18q57 0 101 -18t73 -50t44 -75.5t15 -94.5q0 -20 -2 -38t-4 -27h-334q8 -56 48.5 -80.5t95.5 -24.5q34 0 64.5 8.5t63.5 25.5l48 -88q-42 -27 -94 -42.5t-102 -15.5q-58 0 -108 17.5t-87 51t-58.5 81.5t-21.5 110z
M413 302q0 42 -23 68t-74 26q-40 0 -71 -23t-41 -71h209z" />
    <glyph glyph-name="f" unicode="f" 
d="M557 578q-49 19 -104 19q-48 0 -70.5 -21t-22.5 -66v-14h171v-115h-171v-381h-147v381h-131v109l131 6v13q0 43 13 80t40 64.5t69 43.5t100 16q43 0 80.5 -8t69.5 -19z" />
    <glyph glyph-name="g" unicode="g" 
d="M172 -62q0 -28 33.5 -42.5t92.5 -14.5q60 0 97 17.5t37 43.5q0 24 -22 31.5t-65 7.5h-62q-27 0 -44.5 1.5t-31.5 4.5q-19 -12 -27 -23.5t-8 -25.5zM52 -84q0 61 77 99v4q-20 13 -35 33t-15 52q0 25 16.5 50t42.5 43v4q-27 18 -46 50.5t-19 76.5q0 45 17.5 78.5t46.5 56
t67.5 34t80.5 11.5q46 0 82 -12h201v-107h-101q9 -11 16 -28.5t7 -37.5q0 -43 -16 -74t-43.5 -51.5t-65 -30.5t-80.5 -10q-32 0 -68 10q-11 -8 -16.5 -16t-5.5 -20q0 -20 20 -29t64 -9h92q98 0 149.5 -29t51.5 -96q0 -39 -21 -72t-59 -56.5t-93 -37t-122 -13.5
q-48 0 -89.5 7.5t-71.5 23t-47 39.5t-17 57zM285 246q31 0 53.5 20.5t22.5 61.5q0 40 -22.5 60.5t-53.5 20.5t-52.5 -20.5t-21.5 -60.5q0 -41 21.5 -61.5t52.5 -20.5z" />
    <glyph glyph-name="h" unicode="h" 
d="M72 701h147v-172l-8 -95q15 14 32.5 27.5t38 24t45 16.5t52.5 6q84 0 122.5 -54t38.5 -148v-306h-147v287q0 50 -16 73t-57 23q-30 0 -52.5 -13t-48.5 -39v-331h-147v701z" />
    <glyph glyph-name="i" unicode="i" 
d="M79 496h346v-496h-147v381h-199v115zM345 569q-43 0 -70.5 24t-27.5 65t27.5 66.5t70.5 25.5t70.5 -25.5t27.5 -66.5t-27.5 -65t-70.5 -24z" />
    <glyph glyph-name="j" unicode="j" 
d="M79 496h346v-466q0 -45 -10.5 -86t-37 -72t-71 -49.5t-111.5 -18.5q-46 0 -83.5 9.5t-69.5 24.5l43 105q30 -14 54.5 -19t46.5 -5q53 0 72.5 25.5t19.5 79.5v357h-199v115zM345 569q-43 0 -70.5 24t-27.5 65t27.5 66.5t70.5 25.5t70.5 -25.5t27.5 -66.5t-27.5 -65
t-70.5 -24z" />
    <glyph glyph-name="k" unicode="k" 
d="M76 701h147v-405h4l182 200h161l-188 -204l203 -292h-159l-130 202l-73 -77v-125h-147v701z" />
    <glyph glyph-name="l" unicode="l" 
d="M62 701h291v-513q0 -23 6.5 -38.5t18 -25t26 -13.5t29.5 -4q17 0 36 3.5t42 12.5l33 -108l-37 -11t-34 -8.5t-36 -5.5t-42 -2q-94 0 -141.5 55.5t-47.5 150.5v391h-144v116z" />
    <glyph glyph-name="m" unicode="m" 
d="M36 496h110l11 -62h4q14 31 38.5 52.5t67.5 21.5q33 0 55.5 -20.5t31.5 -60.5q14 34 40.5 57.5t68.5 23.5q52 0 81 -42.5t29 -117.5v-348h-138v337q0 46 -28 46q-27 0 -46 -48v-335h-113v337q0 46 -29 46q-14 0 -24 -12t-21 -36v-335h-138v496z" />
    <glyph glyph-name="n" unicode="n" 
d="M72 496h120l11 -66h4q32 32 73.5 55t97.5 23q84 0 123 -54t39 -148v-306h-147v287q0 50 -16 73t-57 23q-30 0 -52.5 -13t-48.5 -39v-331h-147v496z" />
    <glyph glyph-name="o" unicode="o" 
d="M47 248q0 62 21 110.5t56.5 81.5t81 50.5t94.5 17.5t94.5 -17.5t81 -50.5t56.5 -81.5t21 -110.5t-21 -110.5t-56.5 -81.5t-81 -50.5t-94.5 -17.5t-94.5 17.5t-81 50.5t-56.5 81.5t-21 110.5zM198 248q0 -65 25.5 -103t76.5 -38t76.5 38t25.5 103t-25.5 103t-76.5 38
t-76.5 -38t-25.5 -103z" />
    <glyph glyph-name="p" unicode="p" 
d="M219 -39v-145h-147v680h120l11 -50h3q30 27 69 44.5t79 17.5q46 0 83 -18t63 -51t39.5 -79.5t13.5 -103.5q0 -64 -18 -113.5t-48 -84t-68.5 -52.5t-80.5 -18q-68 0 -124 54zM219 141q21 -18 43.5 -25.5t41.5 -7.5q42 0 70 34.5t28 111.5q0 134 -91 134q-47 0 -92 -46
v-201z" />
    <glyph glyph-name="q" unicode="q" 
d="M47 248q0 61 18 109t47.5 81.5t67.5 51.5t79 18q42 0 74.5 -15t63.5 -48h4l12 51h115v-680h-147v153l6 76q-26 -25 -61 -41t-70 -16q-47 0 -85.5 18t-66 51.5t-42.5 81.5t-15 109zM198 250q0 -74 25 -108t71 -34q25 0 46 10.5t41 35.5v201q-20 18 -40.5 25.5t-42.5 7.5
q-41 0 -70.5 -34t-29.5 -104z" />
    <glyph glyph-name="r" unicode="r" 
d="M116 496h120l12 -108h3q37 61 89 90.5t112 29.5q33 0 53.5 -5t42.5 -15l-30 -123q-23 7 -41.5 10.5t-46.5 3.5q-46 0 -90.5 -27t-76.5 -94v-258h-147v496z" />
    <glyph glyph-name="s" unicode="s" 
d="M119 156q43 -27 86.5 -43t93.5 -16q51 0 73 11t22 31q0 23 -36.5 37.5t-96.5 31.5q-33 9 -64.5 21.5t-56.5 30t-40.5 40.5t-15.5 53q0 34 16 63t45.5 49t72 31.5t95.5 11.5q66 0 120.5 -21.5t93.5 -46.5l-66 -88q-34 20 -70 33.5t-75 13.5q-47 0 -66.5 -10t-19.5 -29
q0 -11 10 -20t27 -16t40.5 -13.5l49.5 -13.5q37 -10 70 -22.5t58 -29.5t40 -41t15 -56q0 -34 -16 -63t-46.5 -50.5t-76 -34t-105.5 -12.5q-67 0 -131 22t-112 54z" />
    <glyph glyph-name="t" unicode="t" 
d="M174 381h-125v109l132 6l19 132h121v-132h210v-115h-210v-174q0 -57 25 -80.5t79 -23.5q29 0 53 5t46 13l26 -106q-33 -10 -73.5 -18.5t-88.5 -8.5q-59 0 -100 16t-66.5 44.5t-36.5 68.5t-11 89v175z" />
    <glyph glyph-name="u" unicode="u" 
d="M525 0h-120l-11 71h-4q-33 -38 -73 -60.5t-94 -22.5q-85 0 -123 54t-38 148v306h147v-287q0 -50 15 -73t57 -23q28 0 49.5 12t47.5 45v326h147v-496z" />
    <glyph glyph-name="v" unicode="v" 
d="M31 496h148l78 -234l23 -76l22 -77h4l21.5 77t22.5 76l78 234h141l-182 -496h-169z" />
    <glyph glyph-name="w" unicode="w" 
d="M4 496h144l30 -230q5 -37 8.5 -73t8.5 -74h3l10 75t13 72l31 164h103l33 -164q7 -37 13 -73t11 -74h4q5 38 8 74t8 73l30 230h134l-77 -496h-170l-28 165q-5 35 -9.5 70.5l-9.5 75.5h-4l-6.5 -61t-11.5 -85l-27 -165h-167z" />
    <glyph glyph-name="x" unicode="x" 
d="M209 258l-161 238h158l51 -80q11 -21 25 -42.5l27 -42.5h4l20.5 43l20.5 42l44 80h154l-162 -255l172 -241h-158l-57 82l-28.5 43l-28.5 43h-4l-23 -42.5t-23 -43.5l-49 -82h-154z" />
    <glyph glyph-name="y" unicode="y" 
d="M93 -72q19 -6 39 -6q43 0 67.5 18t36.5 47l10 26l-215 483h146l83 -213q14 -35 26 -72.5l24 -76.5h4q10 37 22 74.5l23 74.5l73 213h139l-196 -501q-18 -47 -39 -82.5t-48 -59t-62.5 -35.5t-82.5 -12q-22 0 -41 2.5t-35 7.5l26 112v0z" />
    <glyph glyph-name="z" unicode="z" 
d="M70 79l260 302h-228v115h431v-78l-260 -303h268v-115h-471v79z" />
    <glyph glyph-name="Agrave" unicode="&#xc0;" 
d="M366 270l-15 60q-13 49 -26 104l-26 106h-4l-25 -106.5t-26 -103.5l-15 -60h137zM396 155h-197l-40 -155h-150l203 652h176l203 -652h-156zM138 822h156l81 -120h-117z" />
    <glyph glyph-name="Aacute" unicode="&#xc1;" 
d="M366 270l-15 60q-13 49 -26 104l-26 106h-4l-25 -106.5t-26 -103.5l-15 -60h137zM396 155h-197l-40 -155h-150l203 652h176l203 -652h-156zM342 702h-117l81 120h156z" />
    <glyph glyph-name="Acircumflex" unicode="&#xc2;" 
d="M366 270l-15 60q-13 49 -26 104l-26 106h-4l-25 -106.5t-26 -103.5l-15 -60h137zM396 155h-197l-40 -155h-150l203 652h176l203 -652h-156zM132 702l96 120h144l96 -120h-113l-53 61h-4l-53 -61h-113z" />
    <glyph glyph-name="Atilde" unicode="&#xc3;" 
d="M366 270l-15 60q-13 49 -26 104l-26 106h-4l-25 -106.5t-26 -103.5l-15 -60h137zM396 155h-197l-40 -155h-150l203 652h176l203 -652h-156zM363 703q-20 0 -37 7t-31.5 15.5l-27 15.5t-24.5 7q-13 0 -23 -10t-15 -35h-75q8 69 38 102.5t69 33.5q20 0 37 -7t31.5 -15.5
l27 -15.5t24.5 -7q13 0 23 10t15 35h75q-8 -69 -38 -102.5t-69 -33.5z" />
    <glyph glyph-name="Adieresis" unicode="&#xc4;" 
d="M366 270l-15 60q-13 49 -26 104l-26 106h-4l-25 -106.5t-26 -103.5l-15 -60h137zM396 155h-197l-40 -155h-150l203 652h176l203 -652h-156zM201 700q-31 0 -50.5 20t-19.5 50t19.5 50t50.5 20t50.5 -20t19.5 -50t-19.5 -50t-50.5 -20zM399 700q-31 0 -50.5 20t-19.5 50
t19.5 50t50.5 20t50.5 -20t19.5 -50t-19.5 -50t-50.5 -20z" />
    <glyph glyph-name="Amacron" unicode="&#x100;" 
d="M366 270l-15 60q-13 49 -26 104l-26 106h-4l-25 -106.5t-26 -103.5l-15 -60h137zM396 155h-197l-40 -155h-150l203 652h176l203 -652h-156zM159 813h282v-93h-282v93z" />
    <glyph glyph-name="Abreve" unicode="&#x102;" 
d="M366 270l-15 60q-13 49 -26 104l-26 106h-4l-25 -106.5t-26 -103.5l-15 -60h137zM396 155h-197l-40 -155h-150l203 652h176l203 -652h-156zM300 702q-66 0 -98.5 33t-38.5 87h81q5 -20 17.5 -33t38.5 -13t38.5 13t17.5 33h81q-6 -54 -38.5 -87t-98.5 -33z" />
    <glyph glyph-name="Aring" unicode="&#xc5;" 
d="M366 270l-15 60q-13 49 -26 104l-26 106h-4l-25 -106.5t-26 -103.5l-15 -60h137zM396 155h-197l-40 -155h-150l203 652h176l203 -652h-156zM300 697q-51 0 -82 26.5t-31 71.5t31 71.5t82 26.5t82 -26.5t31 -71.5t-31 -71.5t-82 -26.5zM300 752q17 0 28.5 11.5t11.5 31.5
t-11.5 31.5t-28.5 11.5t-29 -11.5t-12 -31.5t12 -31.5t29 -11.5z" />
    <glyph glyph-name="uni01CD" unicode="&#x1cd;" 
d="M366 270l-15 60q-13 49 -26 104l-26 106h-4l-25 -106.5t-26 -103.5l-15 -60h137zM396 155h-197l-40 -155h-150l203 652h176l203 -652h-156zM468 822l-96 -120h-144l-96 120h113l53 -61h4l53 61h113z" />
    <glyph glyph-name="uni1EA0" unicode="&#x1ea0;" 
d="M366 270l-15 60q-13 49 -26 104l-26 106h-4l-25 -106.5t-26 -103.5l-15 -60h137zM396 155h-197l-40 -155h-150l203 652h176l203 -652h-156zM300 -253q-43 0 -70.5 24t-27.5 65t27.5 66.5t70.5 25.5t70.5 -25.5t27.5 -66.5t-27.5 -65t-70.5 -24z" />
    <glyph glyph-name="uni1EA2" unicode="&#x1ea2;" 
d="M366 270l-15 60q-13 49 -26 104l-26 106h-4l-25 -106.5t-26 -103.5l-15 -60h137zM396 155h-197l-40 -155h-150l203 652h176l203 -652h-156zM254 749q18 4 31 10t13 20t-18 22.5t-61 11.5l17 73q92 -2 130 -26.5t38 -64.5q0 -26 -11 -44.5t-30 -31t-44.5 -19.5t-53.5 -9z
" />
    <glyph glyph-name="uni1EA4" unicode="&#x1ea4;" 
d="M366 270l-15 60q-13 49 -26 104l-26 106h-4l-25 -106.5t-26 -103.5l-15 -60h137zM396 155h-197l-40 -155h-150l203 652h176l203 -652h-156zM481 890h114l-99 -120h-83zM237 816h126l95 -114h-104l-52 55h-4l-52 -55h-104z" />
    <glyph glyph-name="uni1EA6" unicode="&#x1ea6;" 
d="M366 270l-15 60q-13 49 -26 104l-26 106h-4l-25 -106.5t-26 -103.5l-15 -60h137zM396 155h-197l-40 -155h-150l203 652h176l203 -652h-156zM538 770h-84l-98 120h113zM237 816h126l95 -114h-104l-52 55h-4l-52 -55h-104z" />
    <glyph glyph-name="uni1EA8" unicode="&#x1ea8;" 
d="M366 270l-15 60q-13 49 -26 104l-26 106h-4l-25 -106.5t-26 -103.5l-15 -60h137zM396 155h-197l-40 -155h-150l203 652h176l203 -652h-156zM426 797q14 3 23 8.5t9 18.5q0 14 -13.5 22t-51.5 11l13 60q82 -2 114.5 -24.5t32.5 -55.5q0 -44 -33.5 -63.5t-82.5 -23.5z
M237 816h126l95 -114h-104l-52 55h-4l-52 -55h-104z" />
    <glyph glyph-name="uni1EAA" unicode="&#x1eaa;" 
d="M366 270l-15 60q-13 49 -26 104l-26 106h-4l-25 -106.5t-26 -103.5l-15 -60h137zM396 155h-197l-40 -155h-150l203 652h176l203 -652h-156zM237 816h126l95 -114h-104l-52 55h-4l-52 -55h-104zM151 852q6 59 31.5 86t59.5 27q20 0 35.5 -6t28 -12.5l23.5 -12.5t21 -6
q27 0 36 37h63q-6 -59 -31.5 -86t-59.5 -27q-20 0 -35.5 6t-28.5 13l-23.5 13t-20.5 6q-28 0 -36 -38h-63z" />
    <glyph glyph-name="uni1EAC" unicode="&#x1eac;" 
d="M366 270l-15 60q-13 49 -26 104l-26 106h-4l-25 -106.5t-26 -103.5l-15 -60h137zM396 155h-197l-40 -155h-150l203 652h176l203 -652h-156zM132 702l96 120h144l96 -120h-113l-53 61h-4l-53 -61h-113zM300 -253q-43 0 -70.5 24t-27.5 65t27.5 66.5t70.5 25.5t70.5 -25.5
t27.5 -66.5t-27.5 -65t-70.5 -24z" />
    <glyph glyph-name="uni1EAE" unicode="&#x1eae;" 
d="M366 270l-15 60q-13 49 -26 104l-26 106h-4l-25 -106.5t-26 -103.5l-15 -60h137zM396 155h-197l-40 -155h-150l203 652h176l203 -652h-156zM319 927h111l-101 -119h-74zM300 702q-65 0 -98 33t-38 87h67q6 -24 21 -39t48 -15t48 15t21 39h67q-5 -54 -38 -87t-98 -33z" />
    <glyph glyph-name="uni1EB0" unicode="&#x1eb0;" 
d="M366 270l-15 60q-13 49 -26 104l-26 106h-4l-25 -106.5t-26 -103.5l-15 -60h137zM396 155h-197l-40 -155h-150l203 652h176l203 -652h-156zM345 808h-74l-101 119h111zM300 702q-65 0 -98 33t-38 87h67q6 -24 21 -39t48 -15t48 15t21 39h67q-5 -54 -38 -87t-98 -33z" />
    <glyph glyph-name="uni1EB2" unicode="&#x1eb2;" 
d="M366 270l-15 60q-13 49 -26 104l-26 106h-4l-25 -106.5t-26 -103.5l-15 -60h137zM396 155h-197l-40 -155h-150l203 652h176l203 -652h-156zM256 853q14 3 23.5 8.5t9.5 18.5q0 14 -14 22t-52 11l14 61q82 -3 114 -25.5t32 -55.5q0 -22 -9 -37.5t-24.5 -26t-36.5 -16
t-45 -7.5zM300 702q-65 0 -98 33t-38 87h67q6 -24 21 -39t48 -15t48 15t21 39h67q-5 -54 -38 -87t-98 -33z" />
    <glyph glyph-name="uni1EB4" unicode="&#x1eb4;" 
d="M366 270l-15 60q-13 49 -26 104l-26 106h-4l-25 -106.5t-26 -103.5l-15 -60h137zM396 155h-197l-40 -155h-150l203 652h176l203 -652h-156zM300 702q-65 0 -98 33t-38 87h67q6 -24 21 -39t48 -15t48 15t21 39h67q-5 -54 -38 -87t-98 -33zM147 852q7 59 33.5 86.5
t59.5 27.5q17 0 31.5 -6t27.5 -13.5t24.5 -13.5t21.5 -6q13 0 23 9.5t14 29.5h66q-7 -59 -33.5 -86.5t-59.5 -27.5q-17 0 -32 6t-27.5 13l-24 13t-21.5 6q-13 0 -23.5 -9.5t-13.5 -28.5h-66z" />
    <glyph glyph-name="uni1EB6" unicode="&#x1eb6;" 
d="M366 270l-15 60q-13 49 -26 104l-26 106h-4l-25 -106.5t-26 -103.5l-15 -60h137zM396 155h-197l-40 -155h-150l203 652h176l203 -652h-156zM300 702q-66 0 -98.5 33t-38.5 87h81q5 -20 17.5 -33t38.5 -13t38.5 13t17.5 33h81q-6 -54 -38.5 -87t-98.5 -33zM300 -253
q-43 0 -70.5 24t-27.5 65t27.5 66.5t70.5 25.5t70.5 -25.5t27.5 -66.5t-27.5 -65t-70.5 -24z" />
    <glyph glyph-name="Aogonek" unicode="&#x104;" 
d="M366 270l-15 60q-13 49 -26 104l-26 106h-4l-24.5 -106.5t-26.5 -103.5l-15 -60h137zM613 -188q-20 -15 -49.5 -25t-55.5 -10q-48 0 -81 24.5t-33 69.5q0 23 8 43.5t20 37t26.5 29t26.5 19.5h-40l-39 155h-197l-40 -155h-150l203 652h176l203 -652q-21 -2 -37.5 -10.5
t-28 -21.5t-18 -28t-6.5 -30q0 -19 11.5 -28.5t27.5 -9.5q11 0 21 4.5t18 9.5z" />
    <glyph glyph-name="AE" unicode="&#xc6;" 
d="M311 263v278h-3q-13 -49 -27 -95.5l-26 -89.5l-28 -93h84zM595 124v-124h-284v149h-118l-45 -149h-151l209 652h380v-124h-145v-129h118v-124h-118v-151h154z" />
    <glyph glyph-name="uni0243" unicode="&#x243;" 
d="M297 105q60 0 91 27t31 79t-30.5 75.5t-91.5 23.5h-66v-64h106v-71h-106v-70h66zM231 397h53q103 0 103 81q0 36 -25.5 52t-76.5 16h-54v-149zM418 362q70 -14 106 -53.5t36 -108.5q0 -52 -19.5 -89.5t-53 -62t-79.5 -36.5t-99 -12h-225v175h-75v65l75 6v406h206
q51 0 94.5 -8t75 -26.5t49.5 -48.5t18 -74q0 -41 -26 -78t-83 -51v-4z" />
    <glyph glyph-name="Ccedilla" unicode="&#xc7;" 
d="M55 322q0 81 24 144.5t66 107.5t99 67t122 23q63 0 111.5 -25.5t81.5 -57.5l-81 -91q-23 21 -50 34t-62 13t-64 -14.5t-50.5 -41.5t-33.5 -66t-12 -88q0 -101 46 -156.5t120 -55.5q35 0 63.5 16t52.5 42l81 -89q-82 -96 -206 -96q-63 0 -119 21.5t-98 63.5t-66.5 104.5
t-24.5 144.5zM308 4h86l-20 -47q25 -8 41.5 -25.5t16.5 -48.5q0 -26 -14.5 -44.5t-39 -31.5t-56.5 -19.5t-67 -8.5l-11 59q35 4 58.5 14t23.5 30q0 13 -12 23.5t-46 18.5z" />
    <glyph glyph-name="Cacute" unicode="&#x106;" 
d="M55 322q0 81 24 144.5t66 107.5t99 67t122 23q63 0 111.5 -25.5t81.5 -57.5l-81 -91q-23 21 -50 34t-62 13t-64 -14.5t-50.5 -41.5t-33.5 -66t-12 -88q0 -101 46 -156.5t120 -55.5q35 0 63.5 16t52.5 42l81 -89q-82 -96 -206 -96q-63 0 -119 21.5t-98 63.5t-66.5 104.5
t-24.5 144.5zM396 702h-117l81 120h156z" />
    <glyph glyph-name="Ccircumflex" unicode="&#x108;" 
d="M55 322q0 81 24 144.5t66 107.5t99 67t122 23q63 0 111.5 -25.5t81.5 -57.5l-81 -91q-23 21 -50 34t-62 13t-64 -14.5t-50.5 -41.5t-33.5 -66t-12 -88q0 -101 46 -156.5t120 -55.5q35 0 63.5 16t52.5 42l81 -89q-82 -96 -206 -96q-63 0 -119 21.5t-98 63.5t-66.5 104.5
t-24.5 144.5zM186 702l96 120h144l96 -120h-113l-53 61h-4l-53 -61h-113z" />
    <glyph glyph-name="Ccaron" unicode="&#x10c;" 
d="M55 322q0 81 24 144.5t66 107.5t99 67t122 23q63 0 111.5 -25.5t81.5 -57.5l-81 -91q-23 21 -50 34t-62 13t-64 -14.5t-50.5 -41.5t-33.5 -66t-12 -88q0 -101 46 -156.5t120 -55.5q35 0 63.5 16t52.5 42l81 -89q-82 -96 -206 -96q-63 0 -119 21.5t-98 63.5t-66.5 104.5
t-24.5 144.5zM522 822l-96 -120h-144l-96 120h113l53 -61h4l53 61h113z" />
    <glyph glyph-name="Cdotaccent" unicode="&#x10a;" 
d="M55 322q0 81 24 144.5t66 107.5t99 67t122 23q63 0 111.5 -25.5t81.5 -57.5l-81 -91q-23 21 -50 34t-62 13t-64 -14.5t-50.5 -41.5t-33.5 -66t-12 -88q0 -101 46 -156.5t120 -55.5q35 0 63.5 16t52.5 42l81 -89q-82 -96 -206 -96q-63 0 -119 21.5t-98 63.5t-66.5 104.5
t-24.5 144.5zM354 701q-37 0 -61 21.5t-24 55.5t24 55.5t61 21.5t61 -21.5t24 -55.5t-24 -55.5t-61 -21.5z" />
    <glyph glyph-name="Dcaron" unicode="&#x10e;" 
d="M65 652h177q71 0 129 -19t99 -58.5t63.5 -100.5t22.5 -145t-22.5 -146t-63 -102.5t-96.5 -60.5t-124 -20h-185v652zM234 119q38 0 69.5 11t54 35.5t35 64.5t12.5 99q0 58 -12.5 97.5t-35 63t-54 33.5t-69.5 10h-21v-414h21zM466 822l-96 -120h-144l-96 120h113l53 -61h4
l53 61h113z" />
    <glyph glyph-name="uni1E0C" unicode="&#x1e0c;" 
d="M65 652h177q71 0 129 -19t99 -58.5t63.5 -100.5t22.5 -145t-22.5 -146t-63 -102.5t-96.5 -60.5t-124 -20h-185v652zM234 119q38 0 69.5 11t54 35.5t35 64.5t12.5 99q0 58 -12.5 97.5t-35 63t-54 33.5t-69.5 10h-21v-414h21zM291 -253q-43 0 -70.5 24t-27.5 65t27.5 66.5
t70.5 25.5t70.5 -25.5t27.5 -66.5t-27.5 -65t-70.5 -24z" />
    <glyph glyph-name="uni1E0E" unicode="&#x1e0e;" 
d="M65 652h177q71 0 129 -19t99 -58.5t63.5 -100.5t22.5 -145t-22.5 -146t-63 -102.5t-96.5 -60.5t-124 -20h-185v652zM234 119q38 0 69.5 11t54 35.5t35 64.5t12.5 99q0 58 -12.5 97.5t-35 63t-54 33.5t-69.5 10h-21v-414h21zM429 -189h-276v94h276v-94z" />
    <glyph glyph-name="Dcroat" unicode="&#x110;" 
d="M71 301h-69v66l69 5v280h178q70 0 128 -19t99 -58.5t63.5 -100.5t22.5 -145t-22.5 -146t-62.5 -102.5t-96.5 -60.5t-123.5 -20h-186v301zM240 119q38 0 69.5 11t54 35.5t35 64.5t12.5 99q0 58 -12.5 97.5t-35 63t-54 33.5t-69.5 10h-21v-161h107v-71h-107v-182h21z" />
    <glyph glyph-name="Egrave" unicode="&#xc8;" 
d="M94 652h430v-124h-283v-131h240v-123h-240v-150h293v-124h-440v652zM160 822h156l81 -120h-117z" />
    <glyph glyph-name="Eacute" unicode="&#xc9;" 
d="M94 652h430v-124h-283v-131h240v-123h-240v-150h293v-124h-440v652zM364 702h-117l81 120h156z" />
    <glyph glyph-name="Ecircumflex" unicode="&#xca;" 
d="M94 652h430v-124h-283v-131h240v-123h-240v-150h293v-124h-440v652zM154 702l96 120h144l96 -120h-113l-53 61h-4l-53 -61h-113z" />
    <glyph glyph-name="Ecaron" unicode="&#x11a;" 
d="M94 652h430v-124h-283v-131h240v-123h-240v-150h293v-124h-440v652zM490 822l-96 -120h-144l-96 120h113l53 -61h4l53 61h113z" />
    <glyph glyph-name="Edieresis" unicode="&#xcb;" 
d="M94 652h430v-124h-283v-131h240v-123h-240v-150h293v-124h-440v652zM223 700q-31 0 -50.5 20t-19.5 50t19.5 50t50.5 20t50.5 -20t19.5 -50t-19.5 -50t-50.5 -20zM421 700q-31 0 -50.5 20t-19.5 50t19.5 50t50.5 20t50.5 -20t19.5 -50t-19.5 -50t-50.5 -20z" />
    <glyph glyph-name="Emacron" unicode="&#x112;" 
d="M94 652h430v-124h-283v-131h240v-123h-240v-150h293v-124h-440v652zM181 813h282v-93h-282v93z" />
    <glyph glyph-name="Ebreve" unicode="&#x114;" 
d="M94 652h430v-124h-283v-131h240v-123h-240v-150h293v-124h-440v652zM322 702q-66 0 -98.5 33t-38.5 87h81q5 -20 17.5 -33t38.5 -13t38.5 13t17.5 33h81q-6 -54 -38.5 -87t-98.5 -33z" />
    <glyph glyph-name="Edotaccent" unicode="&#x116;" 
d="M94 652h430v-124h-283v-131h240v-123h-240v-150h293v-124h-440v652zM322 701q-37 0 -61 21.5t-24 55.5t24 55.5t61 21.5t61 -21.5t24 -55.5t-24 -55.5t-61 -21.5z" />
    <glyph glyph-name="uni1EB8" unicode="&#x1eb8;" 
d="M94 652h430v-124h-283v-131h240v-123h-240v-150h293v-124h-440v652zM321 -253q-43 0 -70.5 24t-27.5 65t27.5 66.5t70.5 25.5t70.5 -25.5t27.5 -66.5t-27.5 -65t-70.5 -24z" />
    <glyph glyph-name="uni1EBA" unicode="&#x1eba;" 
d="M94 652h430v-124h-283v-131h240v-123h-240v-150h293v-124h-440v652zM276 749q18 4 31 10t13 20t-18 22.5t-61 11.5l17 73q92 -2 130 -26.5t38 -64.5q0 -26 -11 -44.5t-30 -31t-44.5 -19.5t-53.5 -9z" />
    <glyph glyph-name="uni1EBC" unicode="&#x1ebc;" 
d="M94 652h430v-124h-283v-131h240v-123h-240v-150h293v-124h-440v652zM385 703q-20 0 -37 7t-31.5 15.5l-27 15.5t-24.5 7q-13 0 -23 -10t-15 -35h-75q8 69 38 102.5t69 33.5q20 0 37 -7t31.5 -15.5l27 -15.5t24.5 -7q13 0 23 10t15 35h75q-8 -69 -38 -102.5t-69 -33.5z
" />
    <glyph glyph-name="uni1EBE" unicode="&#x1ebe;" 
d="M94 652h430v-124h-283v-131h240v-123h-240v-150h293v-124h-440v652zM503 890h114l-99 -120h-83zM259 816h126l95 -114h-104l-52 55h-4l-52 -55h-104z" />
    <glyph glyph-name="uni1EC0" unicode="&#x1ec0;" 
d="M94 652h430v-124h-283v-131h240v-123h-240v-150h293v-124h-440v652zM560 770h-84l-98 120h113zM259 816h126l95 -114h-104l-52 55h-4l-52 -55h-104z" />
    <glyph glyph-name="uni1EC2" unicode="&#x1ec2;" 
d="M94 652h430v-124h-283v-131h240v-123h-240v-150h293v-124h-440v652zM448 797q14 3 23 8.5t9 18.5q0 14 -13.5 22t-51.5 11l13 60q82 -2 114.5 -24.5t32.5 -55.5q0 -44 -33.5 -63.5t-82.5 -23.5zM259 816h126l95 -114h-104l-52 55h-4l-52 -55h-104z" />
    <glyph glyph-name="uni1EC4" unicode="&#x1ec4;" 
d="M94 652h430v-124h-283v-131h240v-123h-240v-150h293v-124h-440v652zM259 816h126l95 -114h-104l-52 55h-4l-52 -55h-104zM173 852q6 59 31.5 86t59.5 27q20 0 35.5 -6t28 -12.5l23.5 -12.5t21 -6q27 0 36 37h63q-6 -59 -31.5 -86t-59.5 -27q-20 0 -35.5 6t-28.5 13
l-23.5 13t-20.5 6q-28 0 -36 -38h-63z" />
    <glyph glyph-name="uni1EC6" unicode="&#x1ec6;" 
d="M94 652h430v-124h-283v-131h240v-123h-240v-150h293v-124h-440v652zM154 702l96 120h144l96 -120h-113l-53 61h-4l-53 -61h-113zM321 -253q-43 0 -70.5 24t-27.5 65t27.5 66.5t70.5 25.5t70.5 -25.5t27.5 -66.5t-27.5 -65t-70.5 -24z" />
    <glyph glyph-name="Eogonek" unicode="&#x118;" 
d="M94 652h430v-124h-283v-131h240v-123h-240v-150h293v-124h-5q-17 -1 -32.5 -9t-27.5 -20.5t-19 -28.5t-7 -32q0 -20 13 -29t29 -9q10 0 19 4.5t17 9.5l33 -74q-19 -15 -48.5 -25t-55.5 -10q-48 0 -81.5 24.5t-33.5 69.5q0 23 7.5 43t19 36.5t25.5 29t27 20.5h-320v652z
" />
    <glyph glyph-name="Gcircumflex" unicode="&#x11c;" 
d="M44 322q0 82 23.5 145.5t64 107t95.5 66.5t118 23q66 0 112.5 -25.5t78.5 -57.5l-81 -91q-21 21 -46 34t-64 13q-32 0 -59 -14.5t-47 -41.5t-31.5 -66t-11.5 -88q0 -101 38.5 -156.5t116.5 -55.5q19 0 36 5t28 15v112h-95v120h227v-300q-33 -31 -87 -55t-117 -24
t-117.5 21.5t-95 63.5t-63.5 104.5t-23 144.5zM162 702l96 120h144l96 -120h-113l-53 61h-4l-53 -61h-113z" />
    <glyph glyph-name="Gbreve" unicode="&#x11e;" 
d="M44 322q0 82 23.5 145.5t64 107t95.5 66.5t118 23q66 0 112.5 -25.5t78.5 -57.5l-81 -91q-21 21 -46 34t-64 13q-32 0 -59 -14.5t-47 -41.5t-31.5 -66t-11.5 -88q0 -101 38.5 -156.5t116.5 -55.5q19 0 36 5t28 15v112h-95v120h227v-300q-33 -31 -87 -55t-117 -24
t-117.5 21.5t-95 63.5t-63.5 104.5t-23 144.5zM330 702q-66 0 -98.5 33t-38.5 87h81q5 -20 17.5 -33t38.5 -13t38.5 13t17.5 33h81q-6 -54 -38.5 -87t-98.5 -33z" />
    <glyph glyph-name="Gdotaccent" unicode="&#x120;" 
d="M44 322q0 82 23.5 145.5t64 107t95.5 66.5t118 23q66 0 112.5 -25.5t78.5 -57.5l-81 -91q-21 21 -46 34t-64 13q-32 0 -59 -14.5t-47 -41.5t-31.5 -66t-11.5 -88q0 -101 38.5 -156.5t116.5 -55.5q19 0 36 5t28 15v112h-95v120h227v-300q-33 -31 -87 -55t-117 -24
t-117.5 21.5t-95 63.5t-63.5 104.5t-23 144.5zM330 701q-37 0 -61 21.5t-24 55.5t24 55.5t61 21.5t61 -21.5t24 -55.5t-24 -55.5t-61 -21.5z" />
    <glyph glyph-name="uni0122" unicode="&#x122;" 
d="M44 322q0 82 23.5 145.5t64 107t95.5 66.5t118 23q66 0 112.5 -25.5t78.5 -57.5l-81 -91q-21 21 -46 34t-64 13q-32 0 -59 -14.5t-47 -41.5t-31.5 -66t-11.5 -88q0 -101 38.5 -156.5t116.5 -55.5q19 0 36 5t28 15v112h-95v120h227v-300q-33 -31 -87 -55t-117 -24
t-117.5 21.5t-95 63.5t-63.5 104.5t-23 144.5zM298 -42q68 -7 94.5 -26.5t26.5 -57.5q0 -26 -14.5 -44.5t-38.5 -31t-56 -19t-68 -8.5l-11 59q36 4 59.5 12t23.5 25q0 14 -10.5 22.5t-33.5 14.5l28 54v0z" />
    <glyph glyph-name="Gcaron" unicode="&#x1e6;" 
d="M44 322q0 82 23.5 145.5t64 107t95.5 66.5t118 23q66 0 112.5 -25.5t78.5 -57.5l-81 -91q-21 21 -46 34t-64 13q-32 0 -59 -14.5t-47 -41.5t-31.5 -66t-11.5 -88q0 -101 38.5 -156.5t116.5 -55.5q19 0 36 5t28 15v112h-95v120h227v-300q-33 -31 -87 -55t-117 -24
t-117.5 21.5t-95 63.5t-63.5 104.5t-23 144.5zM498 822l-96 -120h-144l-96 120h113l53 -61h4l53 61h113z" />
    <glyph glyph-name="uni1E20" unicode="&#x1e20;" 
d="M44 322q0 82 23.5 145.5t64 107t95.5 66.5t118 23q66 0 112.5 -25.5t78.5 -57.5l-81 -91q-21 21 -46 34t-64 13q-32 0 -59 -14.5t-47 -41.5t-31.5 -66t-11.5 -88q0 -101 38.5 -156.5t116.5 -55.5q19 0 36 5t28 15v112h-95v120h227v-300q-33 -31 -87 -55t-117 -24
t-117.5 21.5t-95 63.5t-63.5 104.5t-23 144.5zM189 813h282v-93h-282v93z" />
    <glyph glyph-name="uni00470303" 
d="M44 322q0 82 23.5 145.5t64 107t95.5 66.5t118 23q66 0 112.5 -25.5t78.5 -57.5l-81 -91q-21 21 -46 34t-64 13q-32 0 -59 -14.5t-47 -41.5t-31.5 -66t-11.5 -88q0 -101 38.5 -156.5t116.5 -55.5q19 0 36 5t28 15v112h-95v120h227v-300q-33 -31 -87 -55t-117 -24
t-117.5 21.5t-95 63.5t-63.5 104.5t-23 144.5zM393 703q-20 0 -37 7t-31.5 15.5l-27 15.5t-24.5 7q-13 0 -23 -10t-15 -35h-75q8 69 38 102.5t69 33.5q20 0 37 -7t31.5 -15.5l27 -15.5t24.5 -7q13 0 23 10t15 35h75q-8 -69 -38 -102.5t-69 -33.5z" />
    <glyph glyph-name="Hcircumflex" unicode="&#x124;" 
d="M64 652h147v-251h178v251h147v-652h-147v272h-178v-272h-147v652zM132 702l96 120h144l96 -120h-113l-53 61h-4l-53 -61h-113z" />
    <glyph glyph-name="uni1E24" unicode="&#x1e24;" 
d="M64 652h147v-251h178v251h147v-652h-147v272h-178v-272h-147v652zM300 -253q-43 0 -70.5 24t-27.5 65t27.5 66.5t70.5 25.5t70.5 -25.5t27.5 -66.5t-27.5 -65t-70.5 -24z" />
    <glyph glyph-name="uni1E2A" unicode="&#x1e2a;" 
d="M64 652h147v-251h178v251h147v-652h-147v272h-178v-272h-147v652zM300 -210q-35 0 -60.5 11.5t-42.5 30.5t-26 44.5t-10 52.5h82q3 -25 17 -42t40 -17t40 17t17 42h82q-1 -27 -10 -52.5t-26 -44.5t-42.5 -30.5t-60.5 -11.5z" />
    <glyph glyph-name="Hbar" unicode="&#x126;" 
d="M389 486h-178v-85h178v85zM597 486h-61v-486h-147v272h-178v-272h-147v486h-61v65l61 5v96h147v-95h178v95h147v-95h61v-71z" />
    <glyph glyph-name="Igrave" unicode="&#xcc;" 
d="M74 124h152v404h-152v124h452v-124h-152v-404h152v-124h-452v124zM138 822h156l81 -120h-117z" />
    <glyph glyph-name="Iacute" unicode="&#xcd;" 
d="M74 124h152v404h-152v124h452v-124h-152v-404h152v-124h-452v124zM342 702h-117l81 120h156z" />
    <glyph glyph-name="Icircumflex" unicode="&#xce;" 
d="M74 124h152v404h-152v124h452v-124h-152v-404h152v-124h-452v124zM132 702l96 120h144l96 -120h-113l-53 61h-4l-53 -61h-113z" />
    <glyph glyph-name="Itilde" unicode="&#x128;" 
d="M74 124h152v404h-152v124h452v-124h-152v-404h152v-124h-452v124zM363 703q-20 0 -37 7t-31.5 15.5l-27 15.5t-24.5 7q-13 0 -23 -10t-15 -35h-75q8 69 38 102.5t69 33.5q20 0 37 -7t31.5 -15.5l27 -15.5t24.5 -7q13 0 23 10t15 35h75q-8 -69 -38 -102.5t-69 -33.5z" />
    <glyph glyph-name="Idieresis" unicode="&#xcf;" 
d="M74 124h152v404h-152v124h452v-124h-152v-404h152v-124h-452v124zM201 700q-31 0 -50.5 20t-19.5 50t19.5 50t50.5 20t50.5 -20t19.5 -50t-19.5 -50t-50.5 -20zM399 700q-31 0 -50.5 20t-19.5 50t19.5 50t50.5 20t50.5 -20t19.5 -50t-19.5 -50t-50.5 -20z" />
    <glyph glyph-name="Imacron" unicode="&#x12a;" 
d="M74 124h152v404h-152v124h452v-124h-152v-404h152v-124h-452v124zM159 813h282v-93h-282v93z" />
    <glyph glyph-name="uni012C" unicode="&#x12c;" 
d="M74 124h152v404h-152v124h452v-124h-152v-404h152v-124h-452v124zM300 702q-66 0 -98.5 33t-38.5 87h81q5 -20 17.5 -33t38.5 -13t38.5 13t17.5 33h81q-6 -54 -38.5 -87t-98.5 -33z" />
    <glyph glyph-name="Idotaccent" unicode="&#x130;" 
d="M74 124h152v404h-152v124h452v-124h-152v-404h152v-124h-452v124zM300 701q-37 0 -61 21.5t-24 55.5t24 55.5t61 21.5t61 -21.5t24 -55.5t-24 -55.5t-61 -21.5z" />
    <glyph glyph-name="uni01CF" unicode="&#x1cf;" 
d="M74 124h152v404h-152v124h452v-124h-152v-404h152v-124h-452v124zM468 822l-96 -120h-144l-96 120h113l53 -61h4l53 61h113z" />
    <glyph glyph-name="uni1EC8" unicode="&#x1ec8;" 
d="M74 124h152v404h-152v124h452v-124h-152v-404h152v-124h-452v124zM254 749q18 4 31 10t13 20t-18 22.5t-61 11.5l17 73q92 -2 130 -26.5t38 -64.5q0 -26 -11 -44.5t-30 -31t-44.5 -19.5t-53.5 -9z" />
    <glyph glyph-name="uni1ECA" unicode="&#x1eca;" 
d="M74 124h152v404h-152v124h452v-124h-152v-404h152v-124h-452v124zM300 -253q-43 0 -70.5 24t-27.5 65t27.5 66.5t70.5 25.5t70.5 -25.5t27.5 -66.5t-27.5 -65t-70.5 -24z" />
    <glyph glyph-name="Iogonek" unicode="&#x12e;" 
d="M74 124h152v404h-152v124h452v-124h-152v-404h152v-124h-152q-41 -17 -58 -40.5t-17 -49.5q0 -20 13 -29t28 -9q11 0 20.5 4.5t16.5 9.5l34 -74q-20 -15 -49.5 -25t-55.5 -10q-24 0 -44.5 6t-36 18t-24.5 29.5t-9 40.5q0 24 7.5 44t18.5 36.5t24 28.5t24 20h-192v124z
" />
    <glyph glyph-name="Jcircumflex" unicode="&#x134;" 
d="M144 187q58 -72 124 -72q51 0 76 25.5t25 93.5v295h-255v123h402v-430q0 -48 -12.5 -90.5t-41.5 -74.5t-75.5 -50.5t-113.5 -18.5q-27 0 -56 5.5t-57 18.5t-54 33.5t-47 50.5zM154 702l96 120h144l96 -120h-113l-53 61h-4l-53 -61h-113z" />
    <glyph glyph-name="uni0136" unicode="&#x136;" 
d="M68 652h149v-267h3l193 267h162l-195 -260l214 -392h-163l-138 275l-76 -100v-175h-149v652zM287 -42q68 -7 94.5 -26.5t26.5 -57.5q0 -26 -14.5 -44.5t-38.5 -31t-56 -19t-68 -8.5l-11 59q36 4 59.5 12t23.5 25q0 14 -10.5 22.5t-33.5 14.5l28 54v0z" />
    <glyph glyph-name="Lacute" unicode="&#x139;" 
d="M107 652h147v-528h290v-124h-437v652zM238 702h-117l81 120h156z" />
    <glyph glyph-name="Lcaron" unicode="&#x13d;" 
d="M107 652h147v-528h290v-124h-437v652zM386 511l-5 222h94l-2 -69l-24 -153h-63z" />
    <glyph glyph-name="uni013B" unicode="&#x13b;" 
d="M107 652h147v-528h290v-124h-437v652zM296 -42q68 -7 94.5 -26.5t26.5 -57.5q0 -26 -14.5 -44.5t-38.5 -31t-56 -19t-68 -8.5l-11 59q36 4 59.5 12t23.5 25q0 14 -10.5 22.5t-33.5 14.5l28 54v0z" />
    <glyph glyph-name="Ldot" unicode="&#x13f;" 
d="M107 652h147v-528h290v-124h-437v652zM453 265q-43 0 -70.5 24t-27.5 65t27.5 66.5t70.5 25.5t70.5 -25.5t27.5 -66.5t-27.5 -65t-70.5 -24z" />
    <glyph glyph-name="uni1E36" unicode="&#x1e36;" 
d="M107 652h147v-528h290v-124h-437v652zM332 -253q-43 0 -70.5 24t-27.5 65t27.5 66.5t70.5 25.5t70.5 -25.5t27.5 -66.5t-27.5 -65t-70.5 -24z" />
    <glyph glyph-name="uni1E38" unicode="&#x1e38;" 
d="M107 652h147v-528h290v-124h-437v652zM55 813h282v-93h-282v93zM332 -253q-43 0 -70.5 24t-27.5 65t27.5 66.5t70.5 25.5t70.5 -25.5t27.5 -66.5t-27.5 -65t-70.5 -24z" />
    <glyph glyph-name="uni1E3A" unicode="&#x1e3a;" 
d="M107 652h147v-528h290v-124h-437v652zM470 -189h-276v94h276v-94z" />
    <glyph glyph-name="Lslash" unicode="&#x141;" 
d="M544 124v-124h-437v198l-74 -41v114l74 41v340h147v-268l206 113v-114l-206 -113v-146h290z" />
    <glyph glyph-name="uni1E42" unicode="&#x1e42;" 
d="M65 652h147l66 -231l22 -90h3l22 90l63 231h147v-652h-119v213q0 27 2 66.5t5 81.5l6 81.5t6 65.5h-3l-51 -179l-50 -155h-65l-50 155l-49 179h-4q3 -26 6 -65.5l6 -81.5t5 -81.5t2 -66.5v-213h-117v652zM300 -253q-43 0 -70.5 24t-27.5 65t27.5 66.5t70.5 25.5
t70.5 -25.5t27.5 -66.5t-27.5 -65t-70.5 -24z" />
    <glyph glyph-name="Nacute" unicode="&#x143;" 
d="M66 652h150l138 -325l56 -143h4q-5 52 -13 116t-8 121v231h141v-652h-150l-138 325l-56 142h-4q5 -54 13 -116t8 -120v-231h-141v652zM348 702h-117l81 120h156z" />
    <glyph glyph-name="Ncaron" unicode="&#x147;" 
d="M66 652h150l138 -325l56 -143h4q-5 52 -13 116t-8 121v231h141v-652h-150l-138 325l-56 142h-4q5 -54 13 -116t8 -120v-231h-141v652zM474 822l-96 -120h-144l-96 120h113l53 -61h4l53 61h113z" />
    <glyph glyph-name="Ntilde" unicode="&#xd1;" 
d="M66 652h150l138 -325l56 -143h4q-5 52 -13 116t-8 121v231h141v-652h-150l-138 325l-56 142h-4q5 -54 13 -116t8 -120v-231h-141v652zM369 703q-20 0 -37 7t-31.5 15.5l-27 15.5t-24.5 7q-13 0 -23 -10t-15 -35h-75q8 69 38 102.5t69 33.5q20 0 37 -7t31.5 -15.5
l27 -15.5t24.5 -7q13 0 23 10t15 35h75q-8 -69 -38 -102.5t-69 -33.5z" />
    <glyph glyph-name="uni0145" unicode="&#x145;" 
d="M66 652h150l138 -325l56 -143h4q-5 52 -13 116t-8 121v231h141v-652h-150l-138 325l-56 142h-4q5 -54 13 -116t8 -120v-231h-141v652zM264 -42q68 -7 94.5 -26.5t26.5 -57.5q0 -26 -14.5 -44.5t-38.5 -31t-56 -19t-68 -8.5l-11 59q36 4 59.5 12t23.5 25q0 14 -10.5 22.5
t-33.5 14.5l28 54v0z" />
    <glyph glyph-name="uni1E44" unicode="&#x1e44;" 
d="M66 652h150l138 -325l56 -143h4q-5 52 -13 116t-8 121v231h141v-652h-150l-138 325l-56 142h-4q5 -54 13 -116t8 -120v-231h-141v652zM306 701q-37 0 -61 21.5t-24 55.5t24 55.5t61 21.5t61 -21.5t24 -55.5t-24 -55.5t-61 -21.5z" />
    <glyph glyph-name="uni1E46" unicode="&#x1e46;" 
d="M66 652h150l138 -325l56 -143h4q-5 52 -13 116t-8 121v231h141v-652h-150l-138 325l-56 142h-4q5 -54 13 -116t8 -120v-231h-141v652zM300 -253q-43 0 -70.5 24t-27.5 65t27.5 66.5t70.5 25.5t70.5 -25.5t27.5 -66.5t-27.5 -65t-70.5 -24z" />
    <glyph glyph-name="uni1E48" unicode="&#x1e48;" 
d="M66 652h150l138 -325l56 -143h4q-5 52 -13 116t-8 121v231h141v-652h-150l-138 325l-56 142h-4q5 -54 13 -116t8 -120v-231h-141v652zM438 -189h-276v94h276v-94z" />
    <glyph glyph-name="Ograve" unicode="&#xd2;" 
d="M300 -12q-58 0 -106.5 23.5t-83 67.5t-53.5 107t-19 143t19 142.5t53.5 105t83 65t106.5 22.5t106.5 -22.5t83 -65.5t53.5 -105.5t19 -141.5q0 -80 -19 -143t-53.5 -107t-83 -67.5t-106.5 -23.5zM300 115q51 0 81 57.5t30 156.5q0 98 -30 153t-81 55t-81 -55t-30 -153
q0 -99 30 -156.5t81 -57.5zM138 822h156l81 -120h-117z" />
    <glyph glyph-name="Oacute" unicode="&#xd3;" 
d="M300 -12q-58 0 -106.5 23.5t-83 67.5t-53.5 107t-19 143t19 142.5t53.5 105t83 65t106.5 22.5t106.5 -22.5t83 -65.5t53.5 -105.5t19 -141.5q0 -80 -19 -143t-53.5 -107t-83 -67.5t-106.5 -23.5zM300 115q51 0 81 57.5t30 156.5q0 98 -30 153t-81 55t-81 -55t-30 -153
q0 -99 30 -156.5t81 -57.5zM342 702h-117l81 120h156z" />
    <glyph glyph-name="Ocircumflex" unicode="&#xd4;" 
d="M300 -12q-58 0 -106.5 23.5t-83 67.5t-53.5 107t-19 143t19 142.5t53.5 105t83 65t106.5 22.5t106.5 -22.5t83 -65.5t53.5 -105.5t19 -141.5q0 -80 -19 -143t-53.5 -107t-83 -67.5t-106.5 -23.5zM300 115q51 0 81 57.5t30 156.5q0 98 -30 153t-81 55t-81 -55t-30 -153
q0 -99 30 -156.5t81 -57.5zM132 702l96 120h144l96 -120h-113l-53 61h-4l-53 -61h-113z" />
    <glyph glyph-name="Otilde" unicode="&#xd5;" 
d="M300 -12q-58 0 -106.5 23.5t-83 67.5t-53.5 107t-19 143t19 142.5t53.5 105t83 65t106.5 22.5t106.5 -22.5t83 -65.5t53.5 -105.5t19 -141.5q0 -80 -19 -143t-53.5 -107t-83 -67.5t-106.5 -23.5zM300 115q51 0 81 57.5t30 156.5q0 98 -30 153t-81 55t-81 -55t-30 -153
q0 -99 30 -156.5t81 -57.5zM363 703q-20 0 -37 7t-31.5 15.5l-27 15.5t-24.5 7q-13 0 -23 -10t-15 -35h-75q8 69 38 102.5t69 33.5q20 0 37 -7t31.5 -15.5l27 -15.5t24.5 -7q13 0 23 10t15 35h75q-8 -69 -38 -102.5t-69 -33.5z" />
    <glyph glyph-name="Odieresis" unicode="&#xd6;" 
d="M300 -12q-58 0 -106.5 23.5t-83 67.5t-53.5 107t-19 143t19 142.5t53.5 105t83 65t106.5 22.5t106.5 -22.5t83 -65.5t53.5 -105.5t19 -141.5q0 -80 -19 -143t-53.5 -107t-83 -67.5t-106.5 -23.5zM300 115q51 0 81 57.5t30 156.5q0 98 -30 153t-81 55t-81 -55t-30 -153
q0 -99 30 -156.5t81 -57.5zM201 700q-31 0 -50.5 20t-19.5 50t19.5 50t50.5 20t50.5 -20t19.5 -50t-19.5 -50t-50.5 -20zM399 700q-31 0 -50.5 20t-19.5 50t19.5 50t50.5 20t50.5 -20t19.5 -50t-19.5 -50t-50.5 -20z" />
    <glyph glyph-name="Omacron" unicode="&#x14c;" 
d="M300 -12q-58 0 -106.5 23.5t-83 67.5t-53.5 107t-19 143t19 142.5t53.5 105t83 65t106.5 22.5t106.5 -22.5t83 -65.5t53.5 -105.5t19 -141.5q0 -80 -19 -143t-53.5 -107t-83 -67.5t-106.5 -23.5zM300 115q51 0 81 57.5t30 156.5q0 98 -30 153t-81 55t-81 -55t-30 -153
q0 -99 30 -156.5t81 -57.5zM159 813h282v-93h-282v93z" />
    <glyph glyph-name="uni014E" unicode="&#x14e;" 
d="M300 -12q-58 0 -106.5 23.5t-83 67.5t-53.5 107t-19 143t19 142.5t53.5 105t83 65t106.5 22.5t106.5 -22.5t83 -65.5t53.5 -105.5t19 -141.5q0 -80 -19 -143t-53.5 -107t-83 -67.5t-106.5 -23.5zM300 115q51 0 81 57.5t30 156.5q0 98 -30 153t-81 55t-81 -55t-30 -153
q0 -99 30 -156.5t81 -57.5zM300 702q-66 0 -98.5 33t-38.5 87h81q5 -20 17.5 -33t38.5 -13t38.5 13t17.5 33h81q-6 -54 -38.5 -87t-98.5 -33z" />
    <glyph glyph-name="Ohungarumlaut" unicode="&#x150;" 
d="M300 -12q-58 0 -106.5 23.5t-83 67.5t-53.5 107t-19 143t19 142.5t53.5 105t83 65t106.5 22.5t106.5 -22.5t83 -65.5t53.5 -105.5t19 -141.5q0 -80 -19 -143t-53.5 -107t-83 -67.5t-106.5 -23.5zM300 115q51 0 81 57.5t30 156.5q0 98 -30 153t-81 55t-81 -55t-30 -153
q0 -99 30 -156.5t81 -57.5zM163 702l63 120h125l-89 -120h-99zM406 822h125l-90 -120h-99z" />
    <glyph glyph-name="uni01D1" unicode="&#x1d1;" 
d="M300 -12q-58 0 -106.5 23.5t-83 67.5t-53.5 107t-19 143t19 142.5t53.5 105t83 65t106.5 22.5t106.5 -22.5t83 -65.5t53.5 -105.5t19 -141.5q0 -80 -19 -143t-53.5 -107t-83 -67.5t-106.5 -23.5zM300 115q51 0 81 57.5t30 156.5q0 98 -30 153t-81 55t-81 -55t-30 -153
q0 -99 30 -156.5t81 -57.5zM468 822l-96 -120h-144l-96 120h113l53 -61h4l53 61h113z" />
    <glyph glyph-name="uni1ECC" unicode="&#x1ecc;" 
d="M300 -12q-58 0 -106.5 23.5t-83 67.5t-53.5 107t-19 143t19 142.5t53.5 105t83 65t106.5 22.5t106.5 -22.5t83 -65.5t53.5 -105.5t19 -141.5q0 -80 -19 -143t-53.5 -107t-83 -67.5t-106.5 -23.5zM300 115q51 0 81 57.5t30 156.5q0 98 -30 153t-81 55t-81 -55t-30 -153
q0 -99 30 -156.5t81 -57.5zM300 -253q-43 0 -70.5 24t-27.5 65t27.5 66.5t70.5 25.5t70.5 -25.5t27.5 -66.5t-27.5 -65t-70.5 -24z" />
    <glyph glyph-name="uni1ECE" unicode="&#x1ece;" 
d="M300 -12q-58 0 -106.5 23.5t-83 67.5t-53.5 107t-19 143t19 142.5t53.5 105t83 65t106.5 22.5t106.5 -22.5t83 -65.5t53.5 -105.5t19 -141.5q0 -80 -19 -143t-53.5 -107t-83 -67.5t-106.5 -23.5zM300 115q51 0 81 57.5t30 156.5q0 98 -30 153t-81 55t-81 -55t-30 -153
q0 -99 30 -156.5t81 -57.5zM254 749q18 4 31 10t13 20t-18 22.5t-61 11.5l17 73q92 -2 130 -26.5t38 -64.5q0 -26 -11 -44.5t-30 -31t-44.5 -19.5t-53.5 -9z" />
    <glyph glyph-name="uni1ED0" unicode="&#x1ed0;" 
d="M300 -12q-58 0 -106.5 23.5t-83 67.5t-53.5 107t-19 143t19 142.5t53.5 105t83 65t106.5 22.5t106.5 -22.5t83 -65.5t53.5 -105.5t19 -141.5q0 -80 -19 -143t-53.5 -107t-83 -67.5t-106.5 -23.5zM300 115q51 0 81 57.5t30 156.5q0 98 -30 153t-81 55t-81 -55t-30 -153
q0 -99 30 -156.5t81 -57.5zM481 890h114l-99 -120h-83zM237 816h126l95 -114h-104l-52 55h-4l-52 -55h-104z" />
    <glyph glyph-name="uni1ED2" unicode="&#x1ed2;" 
d="M300 -12q-58 0 -106.5 23.5t-83 67.5t-53.5 107t-19 143t19 142.5t53.5 105t83 65t106.5 22.5t106.5 -22.5t83 -65.5t53.5 -105.5t19 -141.5q0 -80 -19 -143t-53.5 -107t-83 -67.5t-106.5 -23.5zM300 115q51 0 81 57.5t30 156.5q0 98 -30 153t-81 55t-81 -55t-30 -153
q0 -99 30 -156.5t81 -57.5zM538 770h-84l-98 120h113zM237 816h126l95 -114h-104l-52 55h-4l-52 -55h-104z" />
    <glyph glyph-name="uni1ED4" unicode="&#x1ed4;" 
d="M300 -12q-58 0 -106.5 23.5t-83 67.5t-53.5 107t-19 143t19 142.5t53.5 105t83 65t106.5 22.5t106.5 -22.5t83 -65.5t53.5 -105.5t19 -141.5q0 -80 -19 -143t-53.5 -107t-83 -67.5t-106.5 -23.5zM300 115q51 0 81 57.5t30 156.5q0 98 -30 153t-81 55t-81 -55t-30 -153
q0 -99 30 -156.5t81 -57.5zM426 797q14 3 23 8.5t9 18.5q0 14 -13.5 22t-51.5 11l13 60q82 -2 114.5 -24.5t32.5 -55.5q0 -44 -33.5 -63.5t-82.5 -23.5zM237 816h126l95 -114h-104l-52 55h-4l-52 -55h-104z" />
    <glyph glyph-name="uni1ED6" unicode="&#x1ed6;" 
d="M300 -12q-58 0 -106.5 23.5t-83 67.5t-53.5 107t-19 143t19 142.5t53.5 105t83 65t106.5 22.5t106.5 -22.5t83 -65.5t53.5 -105.5t19 -141.5q0 -80 -19 -143t-53.5 -107t-83 -67.5t-106.5 -23.5zM300 115q51 0 81 57.5t30 156.5q0 98 -30 153t-81 55t-81 -55t-30 -153
q0 -99 30 -156.5t81 -57.5zM237 816h126l95 -114h-104l-52 55h-4l-52 -55h-104zM151 852q6 59 31.5 86t59.5 27q20 0 35.5 -6t28 -12.5l23.5 -12.5t21 -6q27 0 36 37h63q-6 -59 -31.5 -86t-59.5 -27q-20 0 -35.5 6t-28.5 13l-23.5 13t-20.5 6q-28 0 -36 -38h-63z" />
    <glyph glyph-name="uni1ED8" unicode="&#x1ed8;" 
d="M300 -12q-58 0 -106.5 23.5t-83 67.5t-53.5 107t-19 143t19 142.5t53.5 105t83 65t106.5 22.5t106.5 -22.5t83 -65.5t53.5 -105.5t19 -141.5q0 -80 -19 -143t-53.5 -107t-83 -67.5t-106.5 -23.5zM300 115q51 0 81 57.5t30 156.5q0 98 -30 153t-81 55t-81 -55t-30 -153
q0 -99 30 -156.5t81 -57.5zM132 702l96 120h144l96 -120h-113l-53 61h-4l-53 -61h-113zM300 -253q-43 0 -70.5 24t-27.5 65t27.5 66.5t70.5 25.5t70.5 -25.5t27.5 -66.5t-27.5 -65t-70.5 -24z" />
    <glyph glyph-name="Oslash" unicode="&#xd8;" 
d="M237 146q26 -31 63 -31q51 0 81 57.5t30 156.5q0 17 -1 33.5t-3 30.5zM369 501q-28 36 -69 36q-51 0 -81 -55t-30 -153q0 -44 6 -80zM511 544q25 -42 38 -95.5t13 -119.5q0 -80 -19 -143t-53.5 -107t-83 -67.5t-106.5 -23.5q-82 0 -141 44l-51 -73l-78 50l64 93
q-27 43 -41.5 100t-14.5 127q0 80 19 142.5t53.5 105t83 65t106.5 22.5q85 0 148 -48l53 77l78 -50z" />
    <glyph glyph-name="OE" unicode="&#x152;" 
d="M19 329q0 84 21 145t58 100.5t87.5 58.5t109.5 19h290v-123h-160v-132h121v-123h-121v-150h170v-124h-308q-58 0 -107 20t-85 60.5t-56 102.5t-20 146zM170 329q0 -59 7.5 -99.5t21.5 -65t34 -35t45 -10.5h16v414h-16q-25 0 -45 -10t-34 -33.5t-21.5 -62.5t-7.5 -98z" />
    <glyph glyph-name="Ohorn" unicode="&#x1a0;" 
d="M300 115q51 0 81 57.5t30 156.5q0 98 -30 153t-81 55t-81 -55t-30 -153q0 -99 30 -156.5t81 -57.5zM566 784q11 -14 20 -34.5t9 -45.5q0 -51 -31 -81t-79 -42q36 -43 56.5 -106.5t20.5 -145.5q0 -80 -19 -143t-53.5 -107t-83 -67.5t-106.5 -23.5t-106.5 23.5t-83 67.5
t-53.5 107t-19 143t19 142.5t53.5 105t83 65t106.5 22.5q66 0 122 -31q27 6 43 19t16 42q0 14 -5 25.5t-10 20.5z" />
    <glyph glyph-name="uni1EDA" unicode="&#x1eda;" 
d="M300 115q51 0 81 57.5t30 156.5q0 98 -30 153t-81 55t-81 -55t-30 -153q0 -99 30 -156.5t81 -57.5zM566 784q11 -14 20 -34.5t9 -45.5q0 -51 -31 -81t-79 -42q36 -43 56.5 -106.5t20.5 -145.5q0 -80 -19 -143t-53.5 -107t-83 -67.5t-106.5 -23.5t-106.5 23.5t-83 67.5
t-53.5 107t-19 143t19 142.5t53.5 105t83 65t106.5 22.5q66 0 122 -31q27 6 43 19t16 42q0 14 -5 25.5t-10 20.5zM342 702h-117l81 120h156z" />
    <glyph glyph-name="uni1EDC" unicode="&#x1edc;" 
d="M300 115q51 0 81 57.5t30 156.5q0 98 -30 153t-81 55t-81 -55t-30 -153q0 -99 30 -156.5t81 -57.5zM566 784q11 -14 20 -34.5t9 -45.5q0 -51 -31 -81t-79 -42q36 -43 56.5 -106.5t20.5 -145.5q0 -80 -19 -143t-53.5 -107t-83 -67.5t-106.5 -23.5t-106.5 23.5t-83 67.5
t-53.5 107t-19 143t19 142.5t53.5 105t83 65t106.5 22.5q66 0 122 -31q27 6 43 19t16 42q0 14 -5 25.5t-10 20.5zM138 822h156l81 -120h-117z" />
    <glyph glyph-name="uni1EDE" unicode="&#x1ede;" 
d="M300 115q51 0 81 57.5t30 156.5q0 98 -30 153t-81 55t-81 -55t-30 -153q0 -99 30 -156.5t81 -57.5zM566 784q11 -14 20 -34.5t9 -45.5q0 -51 -31 -81t-79 -42q36 -43 56.5 -106.5t20.5 -145.5q0 -80 -19 -143t-53.5 -107t-83 -67.5t-106.5 -23.5t-106.5 23.5t-83 67.5
t-53.5 107t-19 143t19 142.5t53.5 105t83 65t106.5 22.5q66 0 122 -31q27 6 43 19t16 42q0 14 -5 25.5t-10 20.5zM254 749q18 4 31 10t13 20t-18 22.5t-61 11.5l17 73q92 -2 130 -26.5t38 -64.5q0 -26 -11 -44.5t-30 -31t-44.5 -19.5t-53.5 -9z" />
    <glyph glyph-name="uni1EE0" unicode="&#x1ee0;" 
d="M300 115q51 0 81 57.5t30 156.5q0 98 -30 153t-81 55t-81 -55t-30 -153q0 -99 30 -156.5t81 -57.5zM566 784q11 -14 20 -34.5t9 -45.5q0 -51 -31 -81t-79 -42q36 -43 56.5 -106.5t20.5 -145.5q0 -80 -19 -143t-53.5 -107t-83 -67.5t-106.5 -23.5t-106.5 23.5t-83 67.5
t-53.5 107t-19 143t19 142.5t53.5 105t83 65t106.5 22.5q66 0 122 -31q27 6 43 19t16 42q0 14 -5 25.5t-10 20.5zM363 703q-20 0 -37 7t-31.5 15.5l-27 15.5t-24.5 7q-13 0 -23 -10t-15 -35h-75q8 69 38 102.5t69 33.5q20 0 37 -7t31.5 -15.5l27 -15.5t24.5 -7q13 0 23 10
t15 35h75q-8 -69 -38 -102.5t-69 -33.5z" />
    <glyph glyph-name="uni1EE2" unicode="&#x1ee2;" 
d="M300 115q51 0 81 57.5t30 156.5q0 98 -30 153t-81 55t-81 -55t-30 -153q0 -99 30 -156.5t81 -57.5zM566 784q11 -14 20 -34.5t9 -45.5q0 -51 -31 -81t-79 -42q36 -43 56.5 -106.5t20.5 -145.5q0 -80 -19 -143t-53.5 -107t-83 -67.5t-106.5 -23.5t-106.5 23.5t-83 67.5
t-53.5 107t-19 143t19 142.5t53.5 105t83 65t106.5 22.5q66 0 122 -31q27 6 43 19t16 42q0 14 -5 25.5t-10 20.5zM300 -253q-43 0 -70.5 24t-27.5 65t27.5 66.5t70.5 25.5t70.5 -25.5t27.5 -66.5t-27.5 -65t-70.5 -24z" />
    <glyph glyph-name="uni01EA" unicode="&#x1ea;" 
d="M430 -188q-19 -15 -48.5 -25t-55.5 -10q-48 0 -81.5 24.5t-33.5 69.5q0 39 20 69t43 50q-60 6 -104.5 35.5t-74 75.5t-43.5 104.5t-14 123.5q0 80 19 142.5t53.5 105t83 65t106.5 22.5t106.5 -22.5t83 -65.5t53.5 -105.5t19 -141.5q0 -67 -12.5 -119.5t-35.5 -93
t-55 -68.5t-71 -45q-38 -17 -54 -43.5t-16 -49.5q0 -20 13 -29t30 -9q10 0 18.5 4.5t16.5 9.5zM300 115q51 0 81 57.5t30 156.5q0 98 -30 153t-81 55t-81 -55t-30 -153q0 -99 30 -156.5t81 -57.5z" />
    <glyph glyph-name="Racute" unicode="&#x154;" 
d="M217 352h72q119 0 119 97q0 48 -30 67t-89 19h-72v-183zM419 0l-125 235h-77v-235h-147v652h231q52 0 97.5 -10t80 -33.5t54.5 -62.5t20 -97q0 -72 -32 -118.5t-84 -69.5l147 -261h-165zM345 702h-117l81 120h156z" />
    <glyph glyph-name="Rcaron" unicode="&#x158;" 
d="M217 352h72q119 0 119 97q0 48 -30 67t-89 19h-72v-183zM419 0l-125 235h-77v-235h-147v652h231q52 0 97.5 -10t80 -33.5t54.5 -62.5t20 -97q0 -72 -32 -118.5t-84 -69.5l147 -261h-165zM471 822l-96 -120h-144l-96 120h113l53 -61h4l53 61h113z" />
    <glyph glyph-name="uni0156" unicode="&#x156;" 
d="M217 352h72q119 0 119 97q0 48 -30 67t-89 19h-72v-183zM419 0l-125 235h-77v-235h-147v652h231q52 0 97.5 -10t80 -33.5t54.5 -62.5t20 -97q0 -72 -32 -118.5t-84 -69.5l147 -261h-165zM284 -42q68 -7 94.5 -26.5t26.5 -57.5q0 -26 -14.5 -44.5t-38.5 -31t-56 -19
t-68 -8.5l-11 59q36 4 59.5 12t23.5 25q0 14 -10.5 22.5t-33.5 14.5l28 54v0z" />
    <glyph glyph-name="uni1E5A" unicode="&#x1e5a;" 
d="M217 352h72q119 0 119 97q0 48 -30 67t-89 19h-72v-183zM419 0l-125 235h-77v-235h-147v652h231q52 0 97.5 -10t80 -33.5t54.5 -62.5t20 -97q0 -72 -32 -118.5t-84 -69.5l147 -261h-165zM320 -253q-43 0 -70.5 24t-27.5 65t27.5 66.5t70.5 25.5t70.5 -25.5t27.5 -66.5
t-27.5 -65t-70.5 -24z" />
    <glyph glyph-name="uni1E5C" unicode="&#x1e5c;" 
d="M217 352h72q119 0 119 97q0 48 -30 67t-89 19h-72v-183zM419 0l-125 235h-77v-235h-147v652h231q52 0 97.5 -10t80 -33.5t54.5 -62.5t20 -97q0 -72 -32 -118.5t-84 -69.5l147 -261h-165zM162 813h282v-93h-282v93zM320 -253q-43 0 -70.5 24t-27.5 65t27.5 66.5t70.5 25.5
t70.5 -25.5t27.5 -66.5t-27.5 -65t-70.5 -24z" />
    <glyph glyph-name="uni1E5E" unicode="&#x1e5e;" 
d="M217 352h72q119 0 119 97q0 48 -30 67t-89 19h-72v-183zM419 0l-125 235h-77v-235h-147v652h231q52 0 97.5 -10t80 -33.5t54.5 -62.5t20 -97q0 -72 -32 -118.5t-84 -69.5l147 -261h-165zM458 -189h-276v94h276v-94z" />
    <glyph glyph-name="Sacute" unicode="&#x15a;" 
d="M135 183q37 -30 80.5 -49t86.5 -19q51 0 74.5 17t23.5 46q0 15 -7 26t-20 19.5t-31.5 16l-42.5 16.5l-84 36q-27 10 -52.5 26t-44.5 37.5t-30.5 50t-11.5 64.5q0 40 17.5 75.5t49 62t75.5 41.5t97 15q60 0 116 -22t101 -64l-75 -93q-34 25 -67 38.5t-75 13.5
q-43 0 -66.5 -15.5t-23.5 -43.5q0 -30 30 -45t77 -32l79 -34q65 -24 102.5 -66t37.5 -111q0 -41 -17 -77.5t-49 -64t-79 -44t-108 -16.5q-66 0 -130.5 23.5t-117.5 70.5zM349 702h-117l81 120h156z" />
    <glyph glyph-name="Scircumflex" unicode="&#x15c;" 
d="M135 183q37 -30 80.5 -49t86.5 -19q51 0 74.5 17t23.5 46q0 15 -7 26t-20 19.5t-31.5 16l-42.5 16.5l-84 36q-27 10 -52.5 26t-44.5 37.5t-30.5 50t-11.5 64.5q0 40 17.5 75.5t49 62t75.5 41.5t97 15q60 0 116 -22t101 -64l-75 -93q-34 25 -67 38.5t-75 13.5
q-43 0 -66.5 -15.5t-23.5 -43.5q0 -30 30 -45t77 -32l79 -34q65 -24 102.5 -66t37.5 -111q0 -41 -17 -77.5t-49 -64t-79 -44t-108 -16.5q-66 0 -130.5 23.5t-117.5 70.5zM139 702l96 120h144l96 -120h-113l-53 61h-4l-53 -61h-113z" />
    <glyph glyph-name="Scaron" unicode="&#x160;" 
d="M135 183q37 -30 80.5 -49t86.5 -19q51 0 74.5 17t23.5 46q0 15 -7 26t-20 19.5t-31.5 16l-42.5 16.5l-84 36q-27 10 -52.5 26t-44.5 37.5t-30.5 50t-11.5 64.5q0 40 17.5 75.5t49 62t75.5 41.5t97 15q60 0 116 -22t101 -64l-75 -93q-34 25 -67 38.5t-75 13.5
q-43 0 -66.5 -15.5t-23.5 -43.5q0 -30 30 -45t77 -32l79 -34q65 -24 102.5 -66t37.5 -111q0 -41 -17 -77.5t-49 -64t-79 -44t-108 -16.5q-66 0 -130.5 23.5t-117.5 70.5zM475 822l-96 -120h-144l-96 120h113l53 -61h4l53 61h113z" />
    <glyph glyph-name="uni015E" unicode="&#x15e;" 
d="M135 183q37 -30 80.5 -49t86.5 -19q51 0 74.5 17t23.5 46q0 15 -7 26t-20 19.5t-31.5 16l-42.5 16.5l-84 36q-27 10 -52.5 26t-44.5 37.5t-30.5 50t-11.5 64.5q0 40 17.5 75.5t49 62t75.5 41.5t97 15q60 0 116 -22t101 -64l-75 -93q-34 25 -67 38.5t-75 13.5
q-43 0 -66.5 -15.5t-23.5 -43.5q0 -30 30 -45t77 -32l79 -34q65 -24 102.5 -66t37.5 -111q0 -41 -17 -77.5t-49 -64t-79 -44t-108 -16.5q-66 0 -130.5 23.5t-117.5 70.5zM264 4h86l-20 -47q25 -8 41.5 -25.5t16.5 -48.5q0 -26 -14.5 -44.5t-39 -31.5t-56.5 -19.5t-67 -8.5
l-11 59q35 4 58.5 14t23.5 30q0 13 -12 23.5t-46 18.5z" />
    <glyph glyph-name="uni0218" unicode="&#x218;" 
d="M135 183q37 -30 80.5 -49t86.5 -19q51 0 74.5 17t23.5 46q0 15 -7 26t-20 19.5t-31.5 16l-42.5 16.5l-84 36q-27 10 -52.5 26t-44.5 37.5t-30.5 50t-11.5 64.5q0 40 17.5 75.5t49 62t75.5 41.5t97 15q60 0 116 -22t101 -64l-75 -93q-34 25 -67 38.5t-75 13.5
q-43 0 -66.5 -15.5t-23.5 -43.5q0 -30 30 -45t77 -32l79 -34q65 -24 102.5 -66t37.5 -111q0 -41 -17 -77.5t-49 -64t-79 -44t-108 -16.5q-66 0 -130.5 23.5t-117.5 70.5zM274 -42q68 -7 94.5 -26.5t26.5 -57.5q0 -26 -14.5 -44.5t-38.5 -31t-56 -19t-68 -8.5l-11 59
q36 4 59.5 12t23.5 25q0 14 -10.5 22.5t-33.5 14.5l28 54v0z" />
    <glyph glyph-name="uni1E60" unicode="&#x1e60;" 
d="M135 183q37 -30 80.5 -49t86.5 -19q51 0 74.5 17t23.5 46q0 15 -7 26t-20 19.5t-31.5 16l-42.5 16.5l-84 36q-27 10 -52.5 26t-44.5 37.5t-30.5 50t-11.5 64.5q0 40 17.5 75.5t49 62t75.5 41.5t97 15q60 0 116 -22t101 -64l-75 -93q-34 25 -67 38.5t-75 13.5
q-43 0 -66.5 -15.5t-23.5 -43.5q0 -30 30 -45t77 -32l79 -34q65 -24 102.5 -66t37.5 -111q0 -41 -17 -77.5t-49 -64t-79 -44t-108 -16.5q-66 0 -130.5 23.5t-117.5 70.5zM307 701q-37 0 -61 21.5t-24 55.5t24 55.5t61 21.5t61 -21.5t24 -55.5t-24 -55.5t-61 -21.5z" />
    <glyph glyph-name="uni1E62" unicode="&#x1e62;" 
d="M135 183q37 -30 80.5 -49t86.5 -19q51 0 74.5 17t23.5 46q0 15 -7 26t-20 19.5t-31.5 16l-42.5 16.5l-84 36q-27 10 -52.5 26t-44.5 37.5t-30.5 50t-11.5 64.5q0 40 17.5 75.5t49 62t75.5 41.5t97 15q60 0 116 -22t101 -64l-75 -93q-34 25 -67 38.5t-75 13.5
q-43 0 -66.5 -15.5t-23.5 -43.5q0 -30 30 -45t77 -32l79 -34q65 -24 102.5 -66t37.5 -111q0 -41 -17 -77.5t-49 -64t-79 -44t-108 -16.5q-66 0 -130.5 23.5t-117.5 70.5zM310 -253q-43 0 -70.5 24t-27.5 65t27.5 66.5t70.5 25.5t70.5 -25.5t27.5 -66.5t-27.5 -65t-70.5 -24z
" />
    <glyph glyph-name="uni1E9E" unicode="&#x1e9e;" 
d="M64 442q0 46 13.5 86.5t42.5 70.5t74.5 47.5t109.5 17.5q87 0 143.5 -50.5t72.5 -132.5l-72 -122q22 -12 43 -28t37.5 -37.5t26.5 -50t10 -65.5q0 -40 -10.5 -75t-32 -60.5t-53.5 -40t-75 -14.5q-56 0 -94 19t-59 45l76 89q17 -19 31.5 -26.5t25.5 -7.5q16 0 26.5 20
t10.5 52q0 30 -25.5 55.5t-76.5 40.5l-10 86l75 125q-8 23 -26.5 41t-47.5 18q-45 0 -65 -30.5t-20 -92.5v-422h-151v442z" />
    <glyph glyph-name="Tcaron" unicode="&#x164;" 
d="M226 528h-195v124h538v-124h-195v-528h-148v528zM468 822l-96 -120h-144l-96 120h113l53 -61h4l53 61h113z" />
    <glyph glyph-name="uni0162" unicode="&#x162;" 
d="M226 528h-195v124h538v-124h-195v-528h-148v528zM260 4h86l-20 -47q25 -8 41.5 -25.5t16.5 -48.5q0 -26 -14.5 -44.5t-39 -31.5t-56.5 -19.5t-67 -8.5l-11 59q35 4 58.5 14t23.5 30q0 13 -12 23.5t-46 18.5z" />
    <glyph glyph-name="uni021A" unicode="&#x21a;" 
d="M226 528h-195v124h538v-124h-195v-528h-148v528zM264 -42q68 -7 94.5 -26.5t26.5 -57.5q0 -26 -14.5 -44.5t-38.5 -31t-56 -19t-68 -8.5l-11 59q36 4 59.5 12t23.5 25q0 14 -10.5 22.5t-33.5 14.5l28 54v0z" />
    <glyph glyph-name="uni1E6C" unicode="&#x1e6c;" 
d="M226 528h-195v124h538v-124h-195v-528h-148v528zM300 -253q-43 0 -70.5 24t-27.5 65t27.5 66.5t70.5 25.5t70.5 -25.5t27.5 -66.5t-27.5 -65t-70.5 -24z" />
    <glyph glyph-name="uni1E6E" unicode="&#x1e6e;" 
d="M226 528h-195v124h538v-124h-195v-528h-148v528zM438 -189h-276v94h276v-94z" />
    <glyph glyph-name="Ugrave" unicode="&#xd9;" 
d="M64 652h147v-416q0 -59 22 -90t69 -31t69.5 31t22.5 90v416h142v-401q0 -128 -57.5 -195.5t-176.5 -67.5q-120 0 -179 67.5t-59 195.5v401zM138 822h156l81 -120h-117z" />
    <glyph glyph-name="Uacute" unicode="&#xda;" 
d="M64 652h147v-416q0 -59 22 -90t69 -31t69.5 31t22.5 90v416h142v-401q0 -128 -57.5 -195.5t-176.5 -67.5q-120 0 -179 67.5t-59 195.5v401zM342 702h-117l81 120h156z" />
    <glyph glyph-name="Ucircumflex" unicode="&#xdb;" 
d="M64 652h147v-416q0 -59 22 -90t69 -31t69.5 31t22.5 90v416h142v-401q0 -128 -57.5 -195.5t-176.5 -67.5q-120 0 -179 67.5t-59 195.5v401zM132 702l96 120h144l96 -120h-113l-53 61h-4l-53 -61h-113z" />
    <glyph glyph-name="Utilde" unicode="&#x168;" 
d="M64 652h147v-416q0 -59 22 -90t69 -31t69.5 31t22.5 90v416h142v-401q0 -128 -57.5 -195.5t-176.5 -67.5q-120 0 -179 67.5t-59 195.5v401zM363 703q-20 0 -37 7t-31.5 15.5l-27 15.5t-24.5 7q-13 0 -23 -10t-15 -35h-75q8 69 38 102.5t69 33.5q20 0 37 -7t31.5 -15.5
l27 -15.5t24.5 -7q13 0 23 10t15 35h75q-8 -69 -38 -102.5t-69 -33.5z" />
    <glyph glyph-name="Udieresis" unicode="&#xdc;" 
d="M64 652h147v-416q0 -59 22 -90t69 -31t69.5 31t22.5 90v416h142v-401q0 -128 -57.5 -195.5t-176.5 -67.5q-120 0 -179 67.5t-59 195.5v401zM201 700q-31 0 -50.5 20t-19.5 50t19.5 50t50.5 20t50.5 -20t19.5 -50t-19.5 -50t-50.5 -20zM399 700q-31 0 -50.5 20t-19.5 50
t19.5 50t50.5 20t50.5 -20t19.5 -50t-19.5 -50t-50.5 -20z" />
    <glyph glyph-name="Umacron" unicode="&#x16a;" 
d="M64 652h147v-416q0 -59 22 -90t69 -31t69.5 31t22.5 90v416h142v-401q0 -128 -57.5 -195.5t-176.5 -67.5q-120 0 -179 67.5t-59 195.5v401zM159 813h282v-93h-282v93z" />
    <glyph glyph-name="Ubreve" unicode="&#x16c;" 
d="M64 652h147v-416q0 -59 22 -90t69 -31t69.5 31t22.5 90v416h142v-401q0 -128 -57.5 -195.5t-176.5 -67.5q-120 0 -179 67.5t-59 195.5v401zM300 702q-66 0 -98.5 33t-38.5 87h81q5 -20 17.5 -33t38.5 -13t38.5 13t17.5 33h81q-6 -54 -38.5 -87t-98.5 -33z" />
    <glyph glyph-name="Uring" unicode="&#x16e;" 
d="M64 652h147v-416q0 -59 22 -90t69 -31t69.5 31t22.5 90v416h142v-401q0 -128 -57.5 -195.5t-176.5 -67.5q-120 0 -179 67.5t-59 195.5v401zM300 697q-51 0 -82 26.5t-31 71.5t31 71.5t82 26.5t82 -26.5t31 -71.5t-31 -71.5t-82 -26.5zM300 752q17 0 28.5 11.5t11.5 31.5
t-11.5 31.5t-28.5 11.5t-29 -11.5t-12 -31.5t12 -31.5t29 -11.5z" />
    <glyph glyph-name="Uhungarumlaut" unicode="&#x170;" 
d="M64 652h147v-416q0 -59 22 -90t69 -31t69.5 31t22.5 90v416h142v-401q0 -128 -57.5 -195.5t-176.5 -67.5q-120 0 -179 67.5t-59 195.5v401zM163 702l63 120h125l-89 -120h-99zM406 822h125l-90 -120h-99z" />
    <glyph glyph-name="uni01D3" unicode="&#x1d3;" 
d="M64 652h147v-416q0 -59 22 -90t69 -31t69.5 31t22.5 90v416h142v-401q0 -128 -57.5 -195.5t-176.5 -67.5q-120 0 -179 67.5t-59 195.5v401zM468 822l-96 -120h-144l-96 120h113l53 -61h4l53 61h113z" />
    <glyph glyph-name="uni01D5" unicode="&#x1d5;" 
d="M64 652h147v-416q0 -59 22 -90t69 -31t69.5 31t22.5 90v416h142v-401q0 -128 -57.5 -195.5t-176.5 -67.5q-120 0 -179 67.5t-59 195.5v401zM159 941h282v-69h-282v69zM201 700q-27 0 -44.5 18t-17.5 44t17.5 43.5t44.5 17.5t44.5 -17.5t17.5 -43.5t-17.5 -44t-44.5 -18z
M399 700q-27 0 -44.5 18t-17.5 44t17.5 43.5t44.5 17.5t44.5 -17.5t17.5 -43.5t-17.5 -44t-44.5 -18z" />
    <glyph glyph-name="uni01D7" unicode="&#x1d7;" 
d="M64 652h147v-416q0 -59 22 -90t69 -31t69.5 31t22.5 90v416h142v-401q0 -128 -57.5 -195.5t-176.5 -67.5q-120 0 -179 67.5t-59 195.5v401zM306 974h154l-118 -120h-117zM201 700q-27 0 -44.5 18t-17.5 44t17.5 43.5t44.5 17.5t44.5 -17.5t17.5 -43.5t-17.5 -44
t-44.5 -18zM399 700q-27 0 -44.5 18t-17.5 44t17.5 43.5t44.5 17.5t44.5 -17.5t17.5 -43.5t-17.5 -44t-44.5 -18z" />
    <glyph glyph-name="uni01D9" unicode="&#x1d9;" 
d="M64 652h147v-416q0 -59 22 -90t69 -31t69.5 31t22.5 90v416h142v-401q0 -128 -57.5 -195.5t-176.5 -67.5q-120 0 -179 67.5t-59 195.5v401zM201 700q-27 0 -44.5 18t-17.5 44t17.5 43.5t44.5 17.5t44.5 -17.5t17.5 -43.5t-17.5 -44t-44.5 -18zM399 700q-27 0 -44.5 18
t-17.5 44t17.5 43.5t44.5 17.5t44.5 -17.5t17.5 -43.5t-17.5 -44t-44.5 -18zM468 974l-96 -120h-144l-96 120h113l53 -60h4l53 60h113z" />
    <glyph glyph-name="uni01DB" unicode="&#x1db;" 
d="M64 652h147v-416q0 -59 22 -90t69 -31t69.5 31t22.5 90v416h142v-401q0 -128 -57.5 -195.5t-176.5 -67.5q-120 0 -179 67.5t-59 195.5v401zM375 854h-117l-118 120h154zM399 700q-27 0 -44.5 18t-17.5 44t17.5 43.5t44.5 17.5t44.5 -17.5t17.5 -43.5t-17.5 -44t-44.5 -18
zM201 700q-27 0 -44.5 18t-17.5 44t17.5 43.5t44.5 17.5t44.5 -17.5t17.5 -43.5t-17.5 -44t-44.5 -18z" />
    <glyph glyph-name="uni1EE4" unicode="&#x1ee4;" 
d="M64 652h147v-416q0 -59 22 -90t69 -31t69.5 31t22.5 90v416h142v-401q0 -128 -57.5 -195.5t-176.5 -67.5q-120 0 -179 67.5t-59 195.5v401zM300 -253q-43 0 -70.5 24t-27.5 65t27.5 66.5t70.5 25.5t70.5 -25.5t27.5 -66.5t-27.5 -65t-70.5 -24z" />
    <glyph glyph-name="uni1EE6" unicode="&#x1ee6;" 
d="M64 652h147v-416q0 -59 22 -90t69 -31t69.5 31t22.5 90v416h142v-401q0 -128 -57.5 -195.5t-176.5 -67.5q-120 0 -179 67.5t-59 195.5v401zM254 749q18 4 31 10t13 20t-18 22.5t-61 11.5l17 73q92 -2 130 -26.5t38 -64.5q0 -26 -11 -44.5t-30 -31t-44.5 -19.5t-53.5 -9z
" />
    <glyph glyph-name="Uogonek" unicode="&#x172;" 
d="M64 652h147v-416q0 -59 22 -90t68 -31q47 0 70 31t23 90v416h142v-401q0 -94 -31 -153.5t-93 -88.5q-29 -14 -47 -27t-28.5 -25.5t-14.5 -24.5t-4 -22q0 -20 13 -29t29 -9q10 0 19 4.5t16 9.5l34 -74q-19 -15 -48.5 -25t-55.5 -10q-48 0 -81.5 24.5t-33.5 69.5
q0 23 7.5 42t18 34t21.5 26l17 17q-106 7 -158 75t-52 186v401z" />
    <glyph glyph-name="Uhorn" unicode="&#x1af;" 
d="M631 804q11 -14 20 -34.5t9 -45.5q0 -28 -9.5 -49.5t-26 -37t-39.5 -25t-49 -14.5v-347q0 -128 -57.5 -195.5t-176.5 -67.5q-120 0 -179 67.5t-59 195.5v401h147v-416q0 -59 22 -90t69 -31t69.5 31t22.5 90v416h70q15 1 29.5 3.5t26.5 9t19 18t7 31.5q0 14 -5 25.5
t-10 20.5z" />
    <glyph glyph-name="uni1EE8" unicode="&#x1ee8;" 
d="M631 804q11 -14 20 -34.5t9 -45.5q0 -28 -9.5 -49.5t-26 -37t-39.5 -25t-49 -14.5v-347q0 -128 -57.5 -195.5t-176.5 -67.5q-120 0 -179 67.5t-59 195.5v401h147v-416q0 -59 22 -90t69 -31t69.5 31t22.5 90v416h70q15 1 29.5 3.5t26.5 9t19 18t7 31.5q0 14 -5 25.5
t-10 20.5zM342 702h-117l81 120h156z" />
    <glyph glyph-name="uni1EEA" unicode="&#x1eea;" 
d="M631 804q11 -14 20 -34.5t9 -45.5q0 -28 -9.5 -49.5t-26 -37t-39.5 -25t-49 -14.5v-347q0 -128 -57.5 -195.5t-176.5 -67.5q-120 0 -179 67.5t-59 195.5v401h147v-416q0 -59 22 -90t69 -31t69.5 31t22.5 90v416h70q15 1 29.5 3.5t26.5 9t19 18t7 31.5q0 14 -5 25.5
t-10 20.5zM138 822h156l81 -120h-117z" />
    <glyph glyph-name="uni1EEC" unicode="&#x1eec;" 
d="M631 804q11 -14 20 -34.5t9 -45.5q0 -28 -9.5 -49.5t-26 -37t-39.5 -25t-49 -14.5v-347q0 -128 -57.5 -195.5t-176.5 -67.5q-120 0 -179 67.5t-59 195.5v401h147v-416q0 -59 22 -90t69 -31t69.5 31t22.5 90v416h70q15 1 29.5 3.5t26.5 9t19 18t7 31.5q0 14 -5 25.5
t-10 20.5zM254 749q18 4 31 10t13 20t-18 22.5t-61 11.5l17 73q92 -2 130 -26.5t38 -64.5q0 -26 -11 -44.5t-30 -31t-44.5 -19.5t-53.5 -9z" />
    <glyph glyph-name="uni1EEE" unicode="&#x1eee;" 
d="M631 804q11 -14 20 -34.5t9 -45.5q0 -28 -9.5 -49.5t-26 -37t-39.5 -25t-49 -14.5v-347q0 -128 -57.5 -195.5t-176.5 -67.5q-120 0 -179 67.5t-59 195.5v401h147v-416q0 -59 22 -90t69 -31t69.5 31t22.5 90v416h70q15 1 29.5 3.5t26.5 9t19 18t7 31.5q0 14 -5 25.5
t-10 20.5zM363 703q-20 0 -37 7t-31.5 15.5l-27 15.5t-24.5 7q-13 0 -23 -10t-15 -35h-75q8 69 38 102.5t69 33.5q20 0 37 -7t31.5 -15.5l27 -15.5t24.5 -7q13 0 23 10t15 35h75q-8 -69 -38 -102.5t-69 -33.5z" />
    <glyph glyph-name="uni1EF0" unicode="&#x1ef0;" 
d="M631 804q11 -14 20 -34.5t9 -45.5q0 -28 -9.5 -49.5t-26 -37t-39.5 -25t-49 -14.5v-347q0 -128 -57.5 -195.5t-176.5 -67.5q-120 0 -179 67.5t-59 195.5v401h147v-416q0 -59 22 -90t69 -31t69.5 31t22.5 90v416h70q15 1 29.5 3.5t26.5 9t19 18t7 31.5q0 14 -5 25.5
t-10 20.5zM300 -253q-43 0 -70.5 24t-27.5 65t27.5 66.5t70.5 25.5t70.5 -25.5t27.5 -66.5t-27.5 -65t-70.5 -24z" />
    <glyph glyph-name="Wgrave" unicode="&#x1e80;" 
d="M4 652h150l21 -347l2 -83l2 -83h3q8 42 17.5 83t17.5 83l45 181h89l43 -181l17 -82t17 -84h4q2 42 2.5 83.5t2.5 82.5l19 347h140l-81 -652h-154l-41 205q-6 31 -11 63.5t-7 61.5h-3q-3 -29 -7.5 -61.5t-10.5 -63.5l-39 -205h-151zM138 822h156l81 -120h-117z" />
    <glyph glyph-name="Wacute" unicode="&#x1e82;" 
d="M4 652h150l21 -347l2 -83l2 -83h3q8 42 17.5 83t17.5 83l45 181h89l43 -181l17 -82t17 -84h4q2 42 2.5 83.5t2.5 82.5l19 347h140l-81 -652h-154l-41 205q-6 31 -11 63.5t-7 61.5h-3q-3 -29 -7.5 -61.5t-10.5 -63.5l-39 -205h-151zM342 702h-117l81 120h156z" />
    <glyph glyph-name="Wcircumflex" unicode="&#x174;" 
d="M4 652h150l21 -347l2 -83l2 -83h3q8 42 17.5 83t17.5 83l45 181h89l43 -181l17 -82t17 -84h4q2 42 2.5 83.5t2.5 82.5l19 347h140l-81 -652h-154l-41 205q-6 31 -11 63.5t-7 61.5h-3q-3 -29 -7.5 -61.5t-10.5 -63.5l-39 -205h-151zM132 702l96 120h144l96 -120h-113
l-53 61h-4l-53 -61h-113z" />
    <glyph glyph-name="Wdieresis" unicode="&#x1e84;" 
d="M4 652h150l21 -347l2 -83l2 -83h3q8 42 17.5 83t17.5 83l45 181h89l43 -181l17 -82t17 -84h4q2 42 2.5 83.5t2.5 82.5l19 347h140l-81 -652h-154l-41 205q-6 31 -11 63.5t-7 61.5h-3q-3 -29 -7.5 -61.5t-10.5 -63.5l-39 -205h-151zM201 700q-31 0 -50.5 20t-19.5 50
t19.5 50t50.5 20t50.5 -20t19.5 -50t-19.5 -50t-50.5 -20zM399 700q-31 0 -50.5 20t-19.5 50t19.5 50t50.5 20t50.5 -20t19.5 -50t-19.5 -50t-50.5 -20z" />
    <glyph glyph-name="Ygrave" unicode="&#x1ef2;" 
d="M226 220l-210 432h158l66 -157q14 -38 29 -74l30 -75h4l31 75l30 74l66 157h154l-210 -432v-220h-148v220zM138 822h156l81 -120h-117z" />
    <glyph glyph-name="Yacute" unicode="&#xdd;" 
d="M226 220l-210 432h158l66 -157q14 -38 29 -74l30 -75h4l31 75l30 74l66 157h154l-210 -432v-220h-148v220zM342 702h-117l81 120h156z" />
    <glyph glyph-name="Ycircumflex" unicode="&#x176;" 
d="M226 220l-210 432h158l66 -157q14 -38 29 -74l30 -75h4l31 75l30 74l66 157h154l-210 -432v-220h-148v220zM132 702l96 120h144l96 -120h-113l-53 61h-4l-53 -61h-113z" />
    <glyph glyph-name="Ydieresis" unicode="&#x178;" 
d="M226 220l-210 432h158l66 -157q14 -38 29 -74l30 -75h4l31 75l30 74l66 157h154l-210 -432v-220h-148v220zM201 700q-31 0 -50.5 20t-19.5 50t19.5 50t50.5 20t50.5 -20t19.5 -50t-19.5 -50t-50.5 -20zM399 700q-31 0 -50.5 20t-19.5 50t19.5 50t50.5 20t50.5 -20
t19.5 -50t-19.5 -50t-50.5 -20z" />
    <glyph glyph-name="uni1E8E" unicode="&#x1e8e;" 
d="M226 220l-210 432h158l66 -157q14 -38 29 -74l30 -75h4l31 75l30 74l66 157h154l-210 -432v-220h-148v220zM300 701q-37 0 -61 21.5t-24 55.5t24 55.5t61 21.5t61 -21.5t24 -55.5t-24 -55.5t-61 -21.5z" />
    <glyph glyph-name="uni1EF4" unicode="&#x1ef4;" 
d="M226 220l-210 432h158l66 -157q14 -38 29 -74l30 -75h4l31 75l30 74l66 157h154l-210 -432v-220h-148v220zM300 -253q-43 0 -70.5 24t-27.5 65t27.5 66.5t70.5 25.5t70.5 -25.5t27.5 -66.5t-27.5 -65t-70.5 -24z" />
    <glyph glyph-name="uni1EF6" unicode="&#x1ef6;" 
d="M226 220l-210 432h158l66 -157q14 -38 29 -74l30 -75h4l31 75l30 74l66 157h154l-210 -432v-220h-148v220zM254 749q18 4 31 10t13 20t-18 22.5t-61 11.5l17 73q92 -2 130 -26.5t38 -64.5q0 -26 -11 -44.5t-30 -31t-44.5 -19.5t-53.5 -9z" />
    <glyph glyph-name="uni1EF8" unicode="&#x1ef8;" 
d="M226 220l-210 432h158l66 -157q14 -38 29 -74l30 -75h4l31 75l30 74l66 157h154l-210 -432v-220h-148v220zM363 703q-20 0 -37 7t-31.5 15.5l-27 15.5t-24.5 7q-13 0 -23 -10t-15 -35h-75q8 69 38 102.5t69 33.5q20 0 37 -7t31.5 -15.5l27 -15.5t24.5 -7q13 0 23 10
t15 35h75q-8 -69 -38 -102.5t-69 -33.5z" />
    <glyph glyph-name="Zacute" unicode="&#x179;" 
d="M56 89l306 440h-277v123h458v-89l-305 -439h309v-124h-491v89zM356 702h-117l81 120h156z" />
    <glyph glyph-name="Zcaron" unicode="&#x17d;" 
d="M56 89l306 440h-277v123h458v-89l-305 -439h309v-124h-491v89zM482 822l-96 -120h-144l-96 120h113l53 -61h4l53 61h113z" />
    <glyph glyph-name="Zdotaccent" unicode="&#x17b;" 
d="M56 89l306 440h-277v123h458v-89l-305 -439h309v-124h-491v89zM314 701q-37 0 -61 21.5t-24 55.5t24 55.5t61 21.5t61 -21.5t24 -55.5t-24 -55.5t-61 -21.5z" />
    <glyph glyph-name="uni1E92" unicode="&#x1e92;" 
d="M56 89l306 440h-277v123h458v-89l-305 -439h309v-124h-491v89zM310 -253q-43 0 -70.5 24t-27.5 65t27.5 66.5t70.5 25.5t70.5 -25.5t27.5 -66.5t-27.5 -65t-70.5 -24z" />
    <glyph glyph-name="Eth" unicode="&#xd0;" 
d="M71 301h-69v66l69 5v280h178q70 0 128 -19t99 -58.5t63.5 -100.5t22.5 -145t-22.5 -146t-62.5 -102.5t-96.5 -60.5t-123.5 -20h-186v301zM240 119q38 0 69.5 11t54 35.5t35 64.5t12.5 99q0 58 -12.5 97.5t-35 63t-54 33.5t-69.5 10h-21v-161h107v-71h-107v-182h21z" />
    <glyph glyph-name="Thorn" unicode="&#xde;" 
d="M73 652h147v-99h91q53 0 99.5 -10.5t81 -35t54.5 -64.5t20 -99q0 -58 -20.5 -99.5t-55.5 -68.5t-81 -40t-98 -13h-91v-123h-147v652zM302 240q119 0 119 104q0 51 -30 71.5t-89 20.5h-82v-196h82z" />
    <glyph glyph-name="uni018F" unicode="&#x18f;" 
d="M208 263q5 -75 31.5 -112.5t68.5 -37.5q39 0 66.5 38t36.5 113zM124 591q34 32 79.5 52.5t108.5 20.5q55 0 100.5 -22.5t78.5 -66t51 -106t18 -142.5t-18.5 -143t-51.5 -106.5t-79.5 -66.5t-102.5 -23t-102 22.5t-79 65.5t-51 105.5t-18 141.5q0 22 3 48h352
q-6 83 -35.5 125.5t-83.5 42.5q-35 0 -60 -14.5t-45 -34.5z" />
    <glyph glyph-name="agrave" unicode="&#xe0;" 
d="M61 138q0 42 18 73.5t57.5 53.5t101.5 35.5t150 18.5q-4 34 -29.5 53t-76.5 19q-36 0 -72.5 -12.5t-78.5 -33.5l-52 96q51 29 109.5 48t122.5 19q104 0 164 -55t60 -169v-284h-120l-11 56h-4q-38 -29 -83 -48.5t-93 -19.5q-38 0 -68 11.5t-51 32t-32.5 47.5t-11.5 59z
M202 149q0 -24 18.5 -35.5t50.5 -11.5q33 0 62 13.5t55 33.5v82q-55 -3 -91 -10t-57 -17.5t-29.5 -24.5t-8.5 -30zM151 741h150l89 -167h-107z" />
    <glyph glyph-name="aacute" unicode="&#xe1;" 
d="M61 138q0 42 18 73.5t57.5 53.5t101.5 35.5t150 18.5q-4 34 -29.5 53t-76.5 19q-36 0 -72.5 -12.5t-78.5 -33.5l-52 96q51 29 109.5 48t122.5 19q104 0 164 -55t60 -169v-284h-120l-11 56h-4q-38 -29 -83 -48.5t-93 -19.5q-38 0 -68 11.5t-51 32t-32.5 47.5t-11.5 59z
M202 149q0 -24 18.5 -35.5t50.5 -11.5q33 0 62 13.5t55 33.5v82q-55 -3 -91 -10t-57 -17.5t-29.5 -24.5t-8.5 -30zM333 574h-107l89 167h150z" />
    <glyph glyph-name="acircumflex" unicode="&#xe2;" 
d="M61 138q0 42 18 73.5t57.5 53.5t101.5 35.5t150 18.5q-4 34 -29.5 53t-76.5 19q-36 0 -72.5 -12.5t-78.5 -33.5l-52 96q51 29 109.5 48t122.5 19q104 0 164 -55t60 -169v-284h-120l-11 56h-4q-38 -29 -83 -48.5t-93 -19.5q-38 0 -68 11.5t-51 32t-32.5 47.5t-11.5 59z
M202 149q0 -24 18.5 -35.5t50.5 -11.5q33 0 62 13.5t55 33.5v82q-55 -3 -91 -10t-57 -17.5t-29.5 -24.5t-8.5 -30zM246 741h124l100 -167h-107l-53 95h-4l-53 -95h-107z" />
    <glyph glyph-name="atilde" unicode="&#xe3;" 
d="M61 138q0 42 18 73.5t57.5 53.5t101.5 35.5t150 18.5q-4 34 -29.5 53t-76.5 19q-36 0 -72.5 -12.5t-78.5 -33.5l-52 96q51 29 109.5 48t122.5 19q104 0 164 -55t60 -169v-284h-120l-11 56h-4q-38 -29 -83 -48.5t-93 -19.5q-38 0 -68 11.5t-51 32t-32.5 47.5t-11.5 59z
M202 149q0 -24 18.5 -35.5t50.5 -11.5q33 0 62 13.5t55 33.5v82q-55 -3 -91 -10t-57 -17.5t-29.5 -24.5t-8.5 -30zM137 575q9 73 40 108t77 35q18 0 33.5 -8t28 -18t23.5 -18t22 -8q16 0 26 11.5t17 40.5h75q-9 -72 -40 -107.5t-77 -35.5q-19 0 -34 8.5t-28 18l-24 18
t-21 8.5q-16 0 -26 -11.5t-17 -41.5h-75v0z" />
    <glyph glyph-name="adieresis" unicode="&#xe4;" 
d="M61 138q0 42 18 73.5t57.5 53.5t101.5 35.5t150 18.5q-4 34 -29.5 53t-76.5 19q-36 0 -72.5 -12.5t-78.5 -33.5l-52 96q51 29 109.5 48t122.5 19q104 0 164 -55t60 -169v-284h-120l-11 56h-4q-38 -29 -83 -48.5t-93 -19.5q-38 0 -68 11.5t-51 32t-32.5 47.5t-11.5 59z
M202 149q0 -24 18.5 -35.5t50.5 -11.5q33 0 62 13.5t55 33.5v82q-55 -3 -91 -10t-57 -17.5t-29.5 -24.5t-8.5 -30zM199 571q-35 0 -57 22.5t-22 56.5q0 33 22 55.5t57 22.5t56.5 -22.5t21.5 -55.5q0 -34 -21.5 -56.5t-56.5 -22.5zM417 571q-35 0 -56.5 22.5t-21.5 56.5
q0 33 21.5 55.5t56.5 22.5t57 -22.5t22 -55.5q0 -34 -22 -56.5t-57 -22.5z" />
    <glyph glyph-name="amacron" unicode="&#x101;" 
d="M61 138q0 42 18 73.5t57.5 53.5t101.5 35.5t150 18.5q-4 34 -29.5 53t-76.5 19q-36 0 -72.5 -12.5t-78.5 -33.5l-52 96q51 29 109.5 48t122.5 19q104 0 164 -55t60 -169v-284h-120l-11 56h-4q-38 -29 -83 -48.5t-93 -19.5q-38 0 -68 11.5t-51 32t-32.5 47.5t-11.5 59z
M202 149q0 -24 18.5 -35.5t50.5 -11.5q33 0 62 13.5t55 33.5v82q-55 -3 -91 -10t-57 -17.5t-29.5 -24.5t-8.5 -30zM170 685h276v-93h-276v93z" />
    <glyph glyph-name="abreve" unicode="&#x103;" 
d="M61 138q0 42 18 73.5t57.5 53.5t101.5 35.5t150 18.5q-4 34 -29.5 53t-76.5 19q-36 0 -72.5 -12.5t-78.5 -33.5l-52 96q51 29 109.5 48t122.5 19q104 0 164 -55t60 -169v-284h-120l-11 56h-4q-38 -29 -83 -48.5t-93 -19.5q-38 0 -68 11.5t-51 32t-32.5 47.5t-11.5 59z
M202 149q0 -24 18.5 -35.5t50.5 -11.5q33 0 62 13.5t55 33.5v82q-55 -3 -91 -10t-57 -17.5t-29.5 -24.5t-8.5 -30zM308 574q-37 0 -64.5 13t-45.5 34.5t-27 50t-10 58.5h82q4 -32 19.5 -53.5t45.5 -21.5t45.5 21.5t19.5 53.5h82q-1 -30 -10 -58.5t-27 -50t-45.5 -34.5
t-64.5 -13z" />
    <glyph glyph-name="aring" unicode="&#xe5;" 
d="M61 138q0 42 18 73.5t57.5 53.5t101.5 35.5t150 18.5q-4 34 -29.5 53t-76.5 19q-36 0 -72.5 -12.5t-78.5 -33.5l-52 96q51 29 109.5 48t122.5 19q104 0 164 -55t60 -169v-284h-120l-11 56h-4q-38 -29 -83 -48.5t-93 -19.5q-38 0 -68 11.5t-51 32t-32.5 47.5t-11.5 59z
M202 149q0 -24 18.5 -35.5t50.5 -11.5q33 0 62 13.5t55 33.5v82q-55 -3 -91 -10t-57 -17.5t-29.5 -24.5t-8.5 -30zM308 548q-51 0 -82 27.5t-31 74.5t31 74.5t82 27.5t82 -27.5t31 -74.5t-31 -74.5t-82 -27.5zM308 603q17 0 29 13t12 34t-12 34t-29 13t-29 -13t-12 -34
t12 -34t29 -13z" />
    <glyph glyph-name="uni01CE" unicode="&#x1ce;" 
d="M61 138q0 42 18 73.5t57.5 53.5t101.5 35.5t150 18.5q-4 34 -29.5 53t-76.5 19q-36 0 -72.5 -12.5t-78.5 -33.5l-52 96q51 29 109.5 48t122.5 19q104 0 164 -55t60 -169v-284h-120l-11 56h-4q-38 -29 -83 -48.5t-93 -19.5q-38 0 -68 11.5t-51 32t-32.5 47.5t-11.5 59z
M202 149q0 -24 18.5 -35.5t50.5 -11.5q33 0 62 13.5t55 33.5v82q-55 -3 -91 -10t-57 -17.5t-29.5 -24.5t-8.5 -30zM146 741h107l53 -96h4l53 96h107l-100 -167h-124z" />
    <glyph glyph-name="uni1EA1" unicode="&#x1ea1;" 
d="M61 138q0 42 18 73.5t57.5 53.5t101.5 35.5t150 18.5q-4 34 -29.5 53t-76.5 19q-36 0 -72.5 -12.5t-78.5 -33.5l-52 96q51 29 109.5 48t122.5 19q104 0 164 -55t60 -169v-284h-120l-11 56h-4q-38 -29 -83 -48.5t-93 -19.5q-38 0 -68 11.5t-51 32t-32.5 47.5t-11.5 59z
M202 149q0 -24 18.5 -35.5t50.5 -11.5q33 0 62 13.5t55 33.5v82q-55 -3 -91 -10t-57 -17.5t-29.5 -24.5t-8.5 -30zM310 -253q-43 0 -70.5 24t-27.5 65t27.5 66.5t70.5 25.5t70.5 -25.5t27.5 -66.5t-27.5 -65t-70.5 -24z" />
    <glyph glyph-name="uni1EA3" unicode="&#x1ea3;" 
d="M61 138q0 42 18 73.5t57.5 53.5t101.5 35.5t150 18.5q-4 34 -29.5 53t-76.5 19q-36 0 -72.5 -12.5t-78.5 -33.5l-52 96q51 29 109.5 48t122.5 19q104 0 164 -55t60 -169v-284h-120l-11 56h-4q-38 -29 -83 -48.5t-93 -19.5q-38 0 -68 11.5t-51 32t-32.5 47.5t-11.5 59z
M202 149q0 -24 18.5 -35.5t50.5 -11.5q33 0 62 13.5t55 33.5v82q-55 -3 -91 -10t-57 -17.5t-29.5 -24.5t-8.5 -30zM262 615q18 3 31 9.5t13 20.5t-18 22.5t-61 10.5l17 74q92 -3 130 -27.5t38 -64.5q0 -26 -11 -44.5t-30 -31t-44.5 -19t-53.5 -8.5z" />
    <glyph glyph-name="uni1EA5" unicode="&#x1ea5;" 
d="M61 138q0 42 18 73.5t57.5 53.5t101.5 35.5t150 18.5q-4 34 -29.5 53t-76.5 19q-36 0 -72.5 -12.5t-78.5 -33.5l-52 96q51 29 109.5 48t122.5 19q104 0 164 -55t60 -169v-284h-120l-11 56h-4q-38 -29 -83 -48.5t-93 -19.5q-38 0 -68 11.5t-51 32t-32.5 47.5t-11.5 59z
M202 149q0 -24 18.5 -35.5t50.5 -11.5q33 0 62 13.5t55 33.5v82q-55 -3 -91 -10t-57 -17.5t-29.5 -24.5t-8.5 -30zM250 702h116l81 -128h-90l-47 65h-4l-47 -65h-90zM483 764h109l-95 -118h-82z" />
    <glyph glyph-name="uni1EA7" unicode="&#x1ea7;" 
d="M61 138q0 42 18 73.5t57.5 53.5t101.5 35.5t150 18.5q-4 34 -29.5 53t-76.5 19q-36 0 -72.5 -12.5t-78.5 -33.5l-52 96q51 29 109.5 48t122.5 19q104 0 164 -55t60 -169v-284h-120l-11 56h-4q-38 -29 -83 -48.5t-93 -19.5q-38 0 -68 11.5t-51 32t-32.5 47.5t-11.5 59z
M202 149q0 -24 18.5 -35.5t50.5 -11.5q33 0 62 13.5t55 33.5v82q-55 -3 -91 -10t-57 -17.5t-29.5 -24.5t-8.5 -30zM250 702h116l81 -128h-90l-47 65h-4l-47 -65h-90zM557 646h-82l-95 118h109z" />
    <glyph glyph-name="uni1EA9" unicode="&#x1ea9;" 
d="M61 138q0 42 18 73.5t57.5 53.5t101.5 35.5t150 18.5q-4 34 -29.5 53t-76.5 19q-36 0 -72.5 -12.5t-78.5 -33.5l-52 96q51 29 109.5 48t122.5 19q104 0 164 -55t60 -169v-284h-120l-11 56h-4q-38 -29 -83 -48.5t-93 -19.5q-38 0 -68 11.5t-51 32t-32.5 47.5t-11.5 59z
M202 149q0 -24 18.5 -35.5t50.5 -11.5q33 0 62 13.5t55 33.5v82q-55 -3 -91 -10t-57 -17.5t-29.5 -24.5t-8.5 -30zM250 702h116l81 -128h-90l-47 65h-4l-47 -65h-90zM436 678q14 3 22 9t8 19q0 14 -13.5 22.5t-51.5 10.5l14 62q82 -2 114.5 -23t32.5 -56q0 -25 -9.5 -41.5
t-25 -27t-36.5 -16.5t-45 -9z" />
    <glyph glyph-name="uni1EAB" unicode="&#x1eab;" 
d="M61 138q0 42 18 73.5t57.5 53.5t101.5 35.5t150 18.5q-4 34 -29.5 53t-76.5 19q-36 0 -72.5 -12.5t-78.5 -33.5l-52 96q51 29 109.5 48t122.5 19q104 0 164 -55t60 -169v-284h-120l-11 56h-4q-38 -29 -83 -48.5t-93 -19.5q-38 0 -68 11.5t-51 32t-32.5 47.5t-11.5 59z
M202 149q0 -24 18.5 -35.5t50.5 -11.5q33 0 62 13.5t55 33.5v82q-55 -3 -91 -10t-57 -17.5t-29.5 -24.5t-8.5 -30zM241 684h134l80 -111h-95l-50 59h-4l-50 -59h-95zM162 720q7 60 32.5 87t58.5 27q20 0 34.5 -6t26 -13l21 -13t20.5 -6q28 0 35 38h64q-7 -59 -32.5 -86.5
t-58.5 -27.5q-20 0 -34.5 6t-26 13l-21.5 13t-20 6q-28 0 -35 -38h-64z" />
    <glyph glyph-name="uni1EAD" unicode="&#x1ead;" 
d="M61 138q0 42 18 73.5t57.5 53.5t101.5 35.5t150 18.5q-4 34 -29.5 53t-76.5 19q-36 0 -72.5 -12.5t-78.5 -33.5l-52 96q51 29 109.5 48t122.5 19q104 0 164 -55t60 -169v-284h-120l-11 56h-4q-38 -29 -83 -48.5t-93 -19.5q-38 0 -68 11.5t-51 32t-32.5 47.5t-11.5 59z
M202 149q0 -24 18.5 -35.5t50.5 -11.5q33 0 62 13.5t55 33.5v82q-55 -3 -91 -10t-57 -17.5t-29.5 -24.5t-8.5 -30zM246 741h124l100 -167h-107l-53 95h-4l-53 -95h-107zM310 -253q-43 0 -70.5 24t-27.5 65t27.5 66.5t70.5 25.5t70.5 -25.5t27.5 -66.5t-27.5 -65t-70.5 -24z
" />
    <glyph glyph-name="uni1EAF" unicode="&#x1eaf;" 
d="M61 138q0 42 18 73.5t57.5 53.5t101.5 35.5t150 18.5q-4 34 -29.5 53t-76.5 19q-36 0 -72.5 -12.5t-78.5 -33.5l-52 96q51 29 109.5 48t122.5 19q104 0 164 -55t60 -169v-284h-120l-11 56h-4q-38 -29 -83 -48.5t-93 -19.5q-38 0 -68 11.5t-51 32t-32.5 47.5t-11.5 59z
M202 149q0 -24 18.5 -35.5t50.5 -11.5q33 0 62 13.5t55 33.5v82q-55 -3 -91 -10t-57 -17.5t-29.5 -24.5t-8.5 -30zM319 810h106l-89 -118h-74zM308 574q-35 0 -60.5 11.5t-42.5 31t-26 44.5t-10 52h65q5 -28 22.5 -47.5t51.5 -19.5t51.5 19.5t22.5 47.5h65q-1 -27 -10 -52
t-26 -44.5t-42.5 -31t-60.5 -11.5z" />
    <glyph glyph-name="uni1EB1" unicode="&#x1eb1;" 
d="M61 138q0 42 18 73.5t57.5 53.5t101.5 35.5t150 18.5q-4 34 -29.5 53t-76.5 19q-36 0 -72.5 -12.5t-78.5 -33.5l-52 96q51 29 109.5 48t122.5 19q104 0 164 -55t60 -169v-284h-120l-11 56h-4q-38 -29 -83 -48.5t-93 -19.5q-38 0 -68 11.5t-51 32t-32.5 47.5t-11.5 59z
M202 149q0 -24 18.5 -35.5t50.5 -11.5q33 0 62 13.5t55 33.5v82q-55 -3 -91 -10t-57 -17.5t-29.5 -24.5t-8.5 -30zM354 692h-74l-89 118h106zM308 574q-35 0 -60.5 11.5t-42.5 31t-26 44.5t-10 52h65q5 -28 22.5 -47.5t51.5 -19.5t51.5 19.5t22.5 47.5h65q-1 -27 -10 -52
t-26 -44.5t-42.5 -31t-60.5 -11.5z" />
    <glyph glyph-name="uni1EB3" unicode="&#x1eb3;" 
d="M61 138q0 42 18 73.5t57.5 53.5t101.5 35.5t150 18.5q-4 34 -29.5 53t-76.5 19q-36 0 -72.5 -12.5t-78.5 -33.5l-52 96q51 29 109.5 48t122.5 19q104 0 164 -55t60 -169v-284h-120l-11 56h-4q-38 -29 -83 -48.5t-93 -19.5q-38 0 -68 11.5t-51 32t-32.5 47.5t-11.5 59z
M202 149q0 -24 18.5 -35.5t50.5 -11.5q33 0 62 13.5t55 33.5v82q-55 -3 -91 -10t-57 -17.5t-29.5 -24.5t-8.5 -30zM308 574q-35 0 -60.5 11.5t-42.5 31t-26 44.5t-10 52h65q5 -28 22.5 -47.5t51.5 -19.5t51.5 19.5t22.5 47.5h65q-1 -27 -10 -52t-26 -44.5t-42.5 -31
t-60.5 -11.5zM264 748q14 3 22 8.5t8 19.5t-13.5 22t-51.5 11l13 62q82 -3 115 -24t33 -56q0 -24 -9.5 -40.5t-25 -27t-37 -16.5t-45.5 -9z" />
    <glyph glyph-name="uni1EB5" unicode="&#x1eb5;" 
d="M61 138q0 42 18 73.5t57.5 53.5t101.5 35.5t150 18.5q-4 34 -29.5 53t-76.5 19q-36 0 -72.5 -12.5t-78.5 -33.5l-52 96q51 29 109.5 48t122.5 19q104 0 164 -55t60 -169v-284h-120l-11 56h-4q-38 -29 -83 -48.5t-93 -19.5q-38 0 -68 11.5t-51 32t-32.5 47.5t-11.5 59z
M202 149q0 -24 18.5 -35.5t50.5 -11.5q33 0 62 13.5t55 33.5v82q-55 -3 -91 -10t-57 -17.5t-29.5 -24.5t-8.5 -30zM308 574q-35 0 -60.5 9.5t-42.5 26t-26 38t-10 45.5h69q5 -20 20.5 -35t49.5 -15t49.5 15t20.5 35h69q-1 -24 -10 -45.5t-26 -38t-42.5 -26t-60.5 -9.5z
M162 720q7 60 32.5 87t58.5 27q20 0 34.5 -6t26 -13l21 -13t20.5 -6q28 0 35 38h64q-7 -59 -32.5 -86.5t-58.5 -27.5q-20 0 -34.5 6t-26 13l-21.5 13t-20 6q-28 0 -35 -38h-64z" />
    <glyph glyph-name="uni1EB7" unicode="&#x1eb7;" 
d="M61 138q0 42 18 73.5t57.5 53.5t101.5 35.5t150 18.5q-4 34 -29.5 53t-76.5 19q-36 0 -72.5 -12.5t-78.5 -33.5l-52 96q51 29 109.5 48t122.5 19q104 0 164 -55t60 -169v-284h-120l-11 56h-4q-38 -29 -83 -48.5t-93 -19.5q-38 0 -68 11.5t-51 32t-32.5 47.5t-11.5 59z
M202 149q0 -24 18.5 -35.5t50.5 -11.5q33 0 62 13.5t55 33.5v82q-55 -3 -91 -10t-57 -17.5t-29.5 -24.5t-8.5 -30zM308 574q-37 0 -64.5 13t-45.5 34.5t-27 50t-10 58.5h82q4 -32 19.5 -53.5t45.5 -21.5t45.5 21.5t19.5 53.5h82q-1 -30 -10 -58.5t-27 -50t-45.5 -34.5
t-64.5 -13zM310 -253q-43 0 -70.5 24t-27.5 65t27.5 66.5t70.5 25.5t70.5 -25.5t27.5 -66.5t-27.5 -65t-70.5 -24z" />
    <glyph glyph-name="aogonek" unicode="&#x105;" 
d="M61 138q0 42 18 73.5t57.5 53.5t101.5 35.5t150 18.5q-4 34 -29.5 53t-76.5 19q-36 0 -72.5 -12.5t-78.5 -33.5l-52 96q51 29 109.5 48t122.5 19q104 0 164 -55t60 -169v-284q-49 -14 -68.5 -38t-19.5 -47q0 -20 13 -29t29 -9q10 0 19 3.5t16 8.5l31 -66q-20 -15 -49 -24
t-52 -9q-45 0 -75.5 23t-30.5 68q0 22 7 40.5t17.5 33.5t22.5 26t21 17l-12 58h-4q-38 -29 -83 -48.5t-93 -19.5q-38 0 -68 11.5t-51 32t-32.5 47.5t-11.5 59zM202 149q0 -24 18.5 -35.5t50.5 -11.5q33 0 62 13.5t55 33.5v82q-55 -3 -91 -10t-57 -17.5t-29.5 -24.5t-8.5 -30
z" />
    <glyph glyph-name="ae" unicode="&#xe6;" 
d="M16 138q0 77 55.5 118.5t169.5 63.5q-3 35 -15.5 53t-41.5 18q-20 0 -48.5 -9t-54.5 -25l-52 96q42 25 82 40t83 15q44 0 71.5 -20t44.5 -53q26 37 55 55t73 18q38 0 67 -19t48.5 -51.5t29.5 -76t10 -92.5q0 -20 -2.5 -37t-4.5 -27h-227q8 -51 32 -76.5t59 -25.5
q21 0 39.5 6t38.5 20l50 -94q-29 -23 -65 -35t-68 -12q-54 0 -89.5 21t-61.5 56q-39 -41 -72.5 -59t-67.5 -18t-59.5 12t-43 32t-26.5 47.5t-9 58.5zM476 295q0 21 -2.5 39t-8.5 32t-16 22t-25 8q-25 0 -43.5 -24.5t-23.5 -76.5h119zM148 150q0 -48 46 -48q14 0 30.5 8.5
t30.5 25.5q-6 16 -9 35.5t-5 38.5l-1 21q-49 -11 -70.5 -31.5t-21.5 -49.5z" />
    <glyph glyph-name="uni0180" unicode="&#x180;" 
d="M219 141q21 -18 43.5 -25.5t42.5 -7.5q41 0 69 32t28 104q0 124 -91 124q-47 0 -92 -46v-181zM215 431q29 27 65.5 42t72.5 15q46 0 83.5 -17t63 -48.5t39.5 -76t14 -99.5q0 -62 -18 -110t-48 -81t-68.5 -50.5t-80.5 -17.5q-35 0 -69.5 17t-65.5 49h-4l-12 -54h-115v556
h-66v65l66 5v75h147v-74h182v-71h-182v-47z" />
    <glyph glyph-name="ccedilla" unicode="&#xe7;" 
d="M67 248q0 62 23.5 110.5t63 81.5t91.5 50.5t109 17.5q59 0 106.5 -19t79.5 -48l-68 -91q-55 39 -110 39q-64 0 -104 -38t-40 -103t38.5 -103t100.5 -38q39 0 72 14t59 33l60 -93q-45 -38 -99.5 -55.5t-105.5 -17.5q-59 0 -109 17.5t-87.5 50.5t-58.5 81.5t-21 110.5z
M302 4h86l-20 -47q26 -8 42 -25.5t16 -48.5q0 -26 -14.5 -44.5t-38.5 -31.5t-56 -19.5t-68 -8.5l-11 59q36 4 59.5 14t23.5 30q0 13 -12.5 23.5t-46.5 18.5z" />
    <glyph glyph-name="cacute" unicode="&#x107;" 
d="M67 248q0 62 23.5 110.5t63 81.5t91.5 50.5t109 17.5q59 0 106.5 -19t79.5 -48l-68 -91q-55 39 -110 39q-64 0 -104 -38t-40 -103t38.5 -103t100.5 -38q39 0 72 14t59 33l60 -93q-45 -38 -99.5 -55.5t-105.5 -17.5q-59 0 -109 17.5t-87.5 50.5t-58.5 81.5t-21 110.5z
M366 574h-107l89 167h150z" />
    <glyph glyph-name="ccircumflex" unicode="&#x109;" 
d="M67 248q0 62 23.5 110.5t63 81.5t91.5 50.5t109 17.5q59 0 106.5 -19t79.5 -48l-68 -91q-55 39 -110 39q-64 0 -104 -38t-40 -103t38.5 -103t100.5 -38q39 0 72 14t59 33l60 -93q-45 -38 -99.5 -55.5t-105.5 -17.5q-59 0 -109 17.5t-87.5 50.5t-58.5 81.5t-21 110.5z
M279 741h124l100 -167h-107l-53 95h-4l-53 -95h-107z" />
    <glyph glyph-name="ccaron" unicode="&#x10d;" 
d="M67 248q0 62 23.5 110.5t63 81.5t91.5 50.5t109 17.5q59 0 106.5 -19t79.5 -48l-68 -91q-55 39 -110 39q-64 0 -104 -38t-40 -103t38.5 -103t100.5 -38q39 0 72 14t59 33l60 -93q-45 -38 -99.5 -55.5t-105.5 -17.5q-59 0 -109 17.5t-87.5 50.5t-58.5 81.5t-21 110.5z
M179 741h107l53 -96h4l53 96h107l-100 -167h-124z" />
    <glyph glyph-name="cdotaccent" unicode="&#x10b;" 
d="M67 248q0 62 23.5 110.5t63 81.5t91.5 50.5t109 17.5q59 0 106.5 -19t79.5 -48l-68 -91q-55 39 -110 39q-64 0 -104 -38t-40 -103t38.5 -103t100.5 -38q39 0 72 14t59 33l60 -93q-45 -38 -99.5 -55.5t-105.5 -17.5q-59 0 -109 17.5t-87.5 50.5t-58.5 81.5t-21 110.5z
M341 569q-43 0 -70.5 24t-27.5 65t27.5 66.5t70.5 25.5t70.5 -25.5t27.5 -66.5t-27.5 -65t-70.5 -24z" />
    <glyph glyph-name="dcaron" unicode="&#x10f;" 
d="M26 248q0 61 18 109t47.5 81.5t67.5 51.5t79 18q43 0 72 -14.5t55 -38.5l-5 77v169h147v-701h-120l-11 51h-3q-28 -27 -64 -45t-74 -18q-47 0 -85.5 18t-66 51.5t-42.5 81.5t-15 109zM177 250q0 -74 25 -108t71 -34q25 0 46 10.5t41 35.5v201q-20 18 -40.5 25.5
t-42.5 7.5q-41 0 -70.5 -34t-29.5 -104zM543 548l-5 222h94l-2 -69l-24 -153h-63z" />
    <glyph glyph-name="uni1E0D" unicode="&#x1e0d;" 
d="M47 248q0 61 18 109t47.5 81.5t67.5 51.5t79 18q43 0 72 -14.5t55 -38.5l-5 77v169h147v-701h-120l-11 51h-3q-28 -27 -64 -45t-74 -18q-47 0 -85.5 18t-66 51.5t-42.5 81.5t-15 109zM198 250q0 -74 25 -108t71 -34q25 0 46 10.5t41 35.5v201q-20 18 -40.5 25.5
t-42.5 7.5q-41 0 -70.5 -34t-29.5 -104zM309 -253q-43 0 -70.5 24t-27.5 65t27.5 66.5t70.5 25.5t70.5 -25.5t27.5 -66.5t-27.5 -65t-70.5 -24z" />
    <glyph glyph-name="uni1E0F" unicode="&#x1e0f;" 
d="M47 248q0 61 18 109t47.5 81.5t67.5 51.5t79 18q43 0 72 -14.5t55 -38.5l-5 77v169h147v-701h-120l-11 51h-3q-28 -27 -64 -45t-74 -18q-47 0 -85.5 18t-66 51.5t-42.5 81.5t-15 109zM198 250q0 -74 25 -108t71 -34q25 0 46 10.5t41 35.5v201q-20 18 -40.5 25.5
t-42.5 7.5q-41 0 -70.5 -34t-29.5 -104zM447 -189h-276v94h276v-94z" />
    <glyph glyph-name="dcroat" unicode="&#x111;" 
d="M381 335q-39 33 -81 33t-72 -31t-30 -97q0 -69 25 -100.5t71 -31.5q25 0 46 10.5t41 35.5v181zM594 562l-66 -5v-557h-120l-11 51h-3q-28 -27 -64 -45t-74 -18q-47 0 -85.5 17t-66 49.5t-42.5 78.5t-15 105q0 58 18 104.5t47.5 79t67.5 49.5t79 17q43 0 72 -14.5
t55 -38.5l-5 77v44h-155v71h155v74h147v-74h66v-65z" />
    <glyph glyph-name="egrave" unicode="&#xe8;" 
d="M55 248q0 61 21.5 109t57.5 81.5t82.5 51.5t96.5 18q57 0 101 -18t73 -50t44 -75.5t15 -94.5q0 -20 -2 -38t-4 -27h-334q8 -56 48.5 -80.5t95.5 -24.5q34 0 64.5 8.5t63.5 25.5l48 -88q-42 -27 -94 -42.5t-102 -15.5q-58 0 -108 17.5t-87 51t-58.5 81.5t-21.5 110z
M413 302q0 42 -23 68t-74 26q-40 0 -71 -23t-41 -71h209zM156 741h150l89 -167h-107z" />
    <glyph glyph-name="eacute" unicode="&#xe9;" 
d="M55 248q0 61 21.5 109t57.5 81.5t82.5 51.5t96.5 18q57 0 101 -18t73 -50t44 -75.5t15 -94.5q0 -20 -2 -38t-4 -27h-334q8 -56 48.5 -80.5t95.5 -24.5q34 0 64.5 8.5t63.5 25.5l48 -88q-42 -27 -94 -42.5t-102 -15.5q-58 0 -108 17.5t-87 51t-58.5 81.5t-21.5 110z
M413 302q0 42 -23 68t-74 26q-40 0 -71 -23t-41 -71h209zM338 574h-107l89 167h150z" />
    <glyph glyph-name="ecircumflex" unicode="&#xea;" 
d="M55 248q0 61 21.5 109t57.5 81.5t82.5 51.5t96.5 18q57 0 101 -18t73 -50t44 -75.5t15 -94.5q0 -20 -2 -38t-4 -27h-334q8 -56 48.5 -80.5t95.5 -24.5q34 0 64.5 8.5t63.5 25.5l48 -88q-42 -27 -94 -42.5t-102 -15.5q-58 0 -108 17.5t-87 51t-58.5 81.5t-21.5 110z
M413 302q0 42 -23 68t-74 26q-40 0 -71 -23t-41 -71h209zM251 741h124l100 -167h-107l-53 95h-4l-53 -95h-107z" />
    <glyph glyph-name="ecaron" unicode="&#x11b;" 
d="M55 248q0 61 21.5 109t57.5 81.5t82.5 51.5t96.5 18q57 0 101 -18t73 -50t44 -75.5t15 -94.5q0 -20 -2 -38t-4 -27h-334q8 -56 48.5 -80.5t95.5 -24.5q34 0 64.5 8.5t63.5 25.5l48 -88q-42 -27 -94 -42.5t-102 -15.5q-58 0 -108 17.5t-87 51t-58.5 81.5t-21.5 110z
M413 302q0 42 -23 68t-74 26q-40 0 -71 -23t-41 -71h209zM151 741h107l53 -96h4l53 96h107l-100 -167h-124z" />
    <glyph glyph-name="edieresis" unicode="&#xeb;" 
d="M55 248q0 61 21.5 109t57.5 81.5t82.5 51.5t96.5 18q57 0 101 -18t73 -50t44 -75.5t15 -94.5q0 -20 -2 -38t-4 -27h-334q8 -56 48.5 -80.5t95.5 -24.5q34 0 64.5 8.5t63.5 25.5l48 -88q-42 -27 -94 -42.5t-102 -15.5q-58 0 -108 17.5t-87 51t-58.5 81.5t-21.5 110z
M413 302q0 42 -23 68t-74 26q-40 0 -71 -23t-41 -71h209zM203 571q-35 0 -57 22.5t-22 56.5q0 33 22 55.5t57 22.5t56.5 -22.5t21.5 -55.5q0 -34 -21.5 -56.5t-56.5 -22.5zM421 571q-35 0 -56.5 22.5t-21.5 56.5q0 33 21.5 55.5t56.5 22.5t57 -22.5t22 -55.5
q0 -34 -22 -56.5t-57 -22.5z" />
    <glyph glyph-name="emacron" unicode="&#x113;" 
d="M55 248q0 61 21.5 109t57.5 81.5t82.5 51.5t96.5 18q57 0 101 -18t73 -50t44 -75.5t15 -94.5q0 -20 -2 -38t-4 -27h-334q8 -56 48.5 -80.5t95.5 -24.5q34 0 64.5 8.5t63.5 25.5l48 -88q-42 -27 -94 -42.5t-102 -15.5q-58 0 -108 17.5t-87 51t-58.5 81.5t-21.5 110z
M413 302q0 42 -23 68t-74 26q-40 0 -71 -23t-41 -71h209zM175 685h276v-93h-276v93z" />
    <glyph glyph-name="ebreve" unicode="&#x115;" 
d="M55 248q0 61 21.5 109t57.5 81.5t82.5 51.5t96.5 18q57 0 101 -18t73 -50t44 -75.5t15 -94.5q0 -20 -2 -38t-4 -27h-334q8 -56 48.5 -80.5t95.5 -24.5q34 0 64.5 8.5t63.5 25.5l48 -88q-42 -27 -94 -42.5t-102 -15.5q-58 0 -108 17.5t-87 51t-58.5 81.5t-21.5 110z
M413 302q0 42 -23 68t-74 26q-40 0 -71 -23t-41 -71h209zM313 574q-37 0 -64.5 13t-45.5 34.5t-27 50t-10 58.5h82q4 -32 19.5 -53.5t45.5 -21.5t45.5 21.5t19.5 53.5h82q-1 -30 -10 -58.5t-27 -50t-45.5 -34.5t-64.5 -13z" />
    <glyph glyph-name="edotaccent" unicode="&#x117;" 
d="M55 248q0 61 21.5 109t57.5 81.5t82.5 51.5t96.5 18q57 0 101 -18t73 -50t44 -75.5t15 -94.5q0 -20 -2 -38t-4 -27h-334q8 -56 48.5 -80.5t95.5 -24.5q34 0 64.5 8.5t63.5 25.5l48 -88q-42 -27 -94 -42.5t-102 -15.5q-58 0 -108 17.5t-87 51t-58.5 81.5t-21.5 110z
M413 302q0 42 -23 68t-74 26q-40 0 -71 -23t-41 -71h209zM313 569q-43 0 -70.5 24t-27.5 65t27.5 66.5t70.5 25.5t70.5 -25.5t27.5 -66.5t-27.5 -65t-70.5 -24z" />
    <glyph glyph-name="uni1EB9" unicode="&#x1eb9;" 
d="M55 248q0 61 21.5 109t57.5 81.5t82.5 51.5t96.5 18q57 0 101 -18t73 -50t44 -75.5t15 -94.5q0 -20 -2 -38t-4 -27h-334q8 -56 48.5 -80.5t95.5 -24.5q34 0 64.5 8.5t63.5 25.5l48 -88q-42 -27 -94 -42.5t-102 -15.5q-58 0 -108 17.5t-87 51t-58.5 81.5t-21.5 110z
M413 302q0 42 -23 68t-74 26q-40 0 -71 -23t-41 -71h209zM313 -253q-43 0 -70.5 24t-27.5 65t27.5 66.5t70.5 25.5t70.5 -25.5t27.5 -66.5t-27.5 -65t-70.5 -24z" />
    <glyph glyph-name="uni1EBB" unicode="&#x1ebb;" 
d="M55 248q0 61 21.5 109t57.5 81.5t82.5 51.5t96.5 18q57 0 101 -18t73 -50t44 -75.5t15 -94.5q0 -20 -2 -38t-4 -27h-334q8 -56 48.5 -80.5t95.5 -24.5q34 0 64.5 8.5t63.5 25.5l48 -88q-42 -27 -94 -42.5t-102 -15.5q-58 0 -108 17.5t-87 51t-58.5 81.5t-21.5 110z
M413 302q0 42 -23 68t-74 26q-40 0 -71 -23t-41 -71h209zM267 615q18 3 31 9.5t13 20.5t-18 22.5t-61 10.5l17 74q92 -3 130 -27.5t38 -64.5q0 -26 -11 -44.5t-30 -31t-44.5 -19t-53.5 -8.5z" />
    <glyph glyph-name="uni1EBD" unicode="&#x1ebd;" 
d="M55 248q0 61 21.5 109t57.5 81.5t82.5 51.5t96.5 18q57 0 101 -18t73 -50t44 -75.5t15 -94.5q0 -20 -2 -38t-4 -27h-334q8 -56 48.5 -80.5t95.5 -24.5q34 0 64.5 8.5t63.5 25.5l48 -88q-42 -27 -94 -42.5t-102 -15.5q-58 0 -108 17.5t-87 51t-58.5 81.5t-21.5 110z
M413 302q0 42 -23 68t-74 26q-40 0 -71 -23t-41 -71h209zM142 575q9 73 40 108t77 35q18 0 33.5 -8t28 -18t23.5 -18t22 -8q16 0 26 11.5t17 40.5h75q-9 -72 -40 -107.5t-77 -35.5q-19 0 -34 8.5t-28 18l-24 18t-21 8.5q-16 0 -26 -11.5t-17 -41.5h-75v0z" />
    <glyph glyph-name="uni1EBF" unicode="&#x1ebf;" 
d="M55 248q0 61 21.5 109t57.5 81.5t82.5 51.5t96.5 18q57 0 101 -18t73 -50t44 -75.5t15 -94.5q0 -20 -2 -38t-4 -27h-334q8 -56 48.5 -80.5t95.5 -24.5q34 0 64.5 8.5t63.5 25.5l48 -88q-42 -27 -94 -42.5t-102 -15.5q-58 0 -108 17.5t-87 51t-58.5 81.5t-21.5 110z
M413 302q0 42 -23 68t-74 26q-40 0 -71 -23t-41 -71h209zM255 702h116l81 -128h-90l-47 65h-4l-47 -65h-90zM488 764h109l-95 -118h-82z" />
    <glyph glyph-name="uni1EC1" unicode="&#x1ec1;" 
d="M55 248q0 61 21.5 109t57.5 81.5t82.5 51.5t96.5 18q57 0 101 -18t73 -50t44 -75.5t15 -94.5q0 -20 -2 -38t-4 -27h-334q8 -56 48.5 -80.5t95.5 -24.5q34 0 64.5 8.5t63.5 25.5l48 -88q-42 -27 -94 -42.5t-102 -15.5q-58 0 -108 17.5t-87 51t-58.5 81.5t-21.5 110z
M413 302q0 42 -23 68t-74 26q-40 0 -71 -23t-41 -71h209zM255 702h116l81 -128h-90l-47 65h-4l-47 -65h-90zM562 646h-82l-95 118h109z" />
    <glyph glyph-name="uni1EC3" unicode="&#x1ec3;" 
d="M55 248q0 61 21.5 109t57.5 81.5t82.5 51.5t96.5 18q57 0 101 -18t73 -50t44 -75.5t15 -94.5q0 -20 -2 -38t-4 -27h-334q8 -56 48.5 -80.5t95.5 -24.5q34 0 64.5 8.5t63.5 25.5l48 -88q-42 -27 -94 -42.5t-102 -15.5q-58 0 -108 17.5t-87 51t-58.5 81.5t-21.5 110z
M413 302q0 42 -23 68t-74 26q-40 0 -71 -23t-41 -71h209zM255 702h116l81 -128h-90l-47 65h-4l-47 -65h-90zM441 678q14 3 22 9t8 19q0 14 -13.5 22.5t-51.5 10.5l14 62q82 -2 114.5 -23t32.5 -56q0 -25 -9.5 -41.5t-25 -27t-36.5 -16.5t-45 -9z" />
    <glyph glyph-name="uni1EC5" unicode="&#x1ec5;" 
d="M55 248q0 61 21.5 109t57.5 81.5t82.5 51.5t96.5 18q57 0 101 -18t73 -50t44 -75.5t15 -94.5q0 -20 -2 -38t-4 -27h-334q8 -56 48.5 -80.5t95.5 -24.5q34 0 64.5 8.5t63.5 25.5l48 -88q-42 -27 -94 -42.5t-102 -15.5q-58 0 -108 17.5t-87 51t-58.5 81.5t-21.5 110z
M413 302q0 42 -23 68t-74 26q-40 0 -71 -23t-41 -71h209zM246 684h134l80 -111h-95l-50 59h-4l-50 -59h-95zM167 720q7 60 32.5 87t58.5 27q20 0 34.5 -6t26 -13l21 -13t20.5 -6q28 0 35 38h64q-7 -59 -32.5 -86.5t-58.5 -27.5q-20 0 -34.5 6t-26 13l-21.5 13t-20 6
q-28 0 -35 -38h-64z" />
    <glyph glyph-name="uni1EC7" unicode="&#x1ec7;" 
d="M55 248q0 61 21.5 109t57.5 81.5t82.5 51.5t96.5 18q57 0 101 -18t73 -50t44 -75.5t15 -94.5q0 -20 -2 -38t-4 -27h-334q8 -56 48.5 -80.5t95.5 -24.5q34 0 64.5 8.5t63.5 25.5l48 -88q-42 -27 -94 -42.5t-102 -15.5q-58 0 -108 17.5t-87 51t-58.5 81.5t-21.5 110z
M413 302q0 42 -23 68t-74 26q-40 0 -71 -23t-41 -71h209zM251 741h124l100 -167h-107l-53 95h-4l-53 -95h-107zM313 -253q-43 0 -70.5 24t-27.5 65t27.5 66.5t70.5 25.5t70.5 -25.5t27.5 -66.5t-27.5 -65t-70.5 -24z" />
    <glyph glyph-name="eogonek" unicode="&#x119;" 
d="M526 46q-33 -23 -54.5 -41t-33.5 -33t-16.5 -28.5t-4.5 -28.5q0 -20 12.5 -29t30.5 -9q10 0 18.5 3.5t16.5 8.5l30 -66q-19 -15 -48 -24t-53 -9q-45 0 -74.5 23t-29.5 68q0 37 18.5 66t38.5 46q-17 -4 -26.5 -4.5t-20.5 -0.5q-58 0 -108 17.5t-87 51t-58.5 81.5
t-21.5 110q0 61 21.5 109t57.5 81.5t82.5 51.5t96.5 18q57 0 101 -18t73 -50t44 -75.5t15 -94.5q0 -20 -2 -38t-4 -27h-334q8 -56 48.5 -80.5t95.5 -24.5q34 0 64.5 8.5t63.5 25.5zM413 302q0 42 -23 68t-74 26q-40 0 -71 -23t-41 -71h209z" />
    <glyph glyph-name="gcircumflex" unicode="&#x11d;" 
d="M172 -62q0 -28 33.5 -42.5t92.5 -14.5q60 0 97 17.5t37 43.5q0 24 -22 31.5t-65 7.5h-62q-27 0 -44.5 1.5t-31.5 4.5q-19 -12 -27 -23.5t-8 -25.5zM52 -84q0 61 77 99v4q-20 13 -35 33t-15 52q0 25 16.5 50t42.5 43v4q-27 18 -46 50.5t-19 76.5q0 45 17.5 78.5t46.5 56
t67.5 34t80.5 11.5q46 0 82 -12h201v-107h-101q9 -11 16 -28.5t7 -37.5q0 -43 -16 -74t-43.5 -51.5t-65 -30.5t-80.5 -10q-32 0 -68 10q-11 -8 -16.5 -16t-5.5 -20q0 -20 20 -29t64 -9h92q98 0 149.5 -29t51.5 -96q0 -39 -21 -72t-59 -56.5t-93 -37t-122 -13.5
q-48 0 -89.5 7.5t-71.5 23t-47 39.5t-17 57zM285 246q31 0 53.5 20.5t22.5 61.5q0 40 -22.5 60.5t-53.5 20.5t-52.5 -20.5t-21.5 -60.5q0 -41 21.5 -61.5t52.5 -20.5zM242 741h124l100 -167h-107l-53 95h-4l-53 -95h-107z" />
    <glyph glyph-name="gbreve" unicode="&#x11f;" 
d="M172 -62q0 -28 33.5 -42.5t92.5 -14.5q60 0 97 17.5t37 43.5q0 24 -22 31.5t-65 7.5h-62q-27 0 -44.5 1.5t-31.5 4.5q-19 -12 -27 -23.5t-8 -25.5zM52 -84q0 61 77 99v4q-20 13 -35 33t-15 52q0 25 16.5 50t42.5 43v4q-27 18 -46 50.5t-19 76.5q0 45 17.5 78.5t46.5 56
t67.5 34t80.5 11.5q46 0 82 -12h201v-107h-101q9 -11 16 -28.5t7 -37.5q0 -43 -16 -74t-43.5 -51.5t-65 -30.5t-80.5 -10q-32 0 -68 10q-11 -8 -16.5 -16t-5.5 -20q0 -20 20 -29t64 -9h92q98 0 149.5 -29t51.5 -96q0 -39 -21 -72t-59 -56.5t-93 -37t-122 -13.5
q-48 0 -89.5 7.5t-71.5 23t-47 39.5t-17 57zM285 246q31 0 53.5 20.5t22.5 61.5q0 40 -22.5 60.5t-53.5 20.5t-52.5 -20.5t-21.5 -60.5q0 -41 21.5 -61.5t52.5 -20.5zM304 574q-37 0 -64.5 13t-45.5 34.5t-27 50t-10 58.5h82q4 -32 19.5 -53.5t45.5 -21.5t45.5 21.5
t19.5 53.5h82q-1 -30 -10 -58.5t-27 -50t-45.5 -34.5t-64.5 -13z" />
    <glyph glyph-name="gdotaccent" unicode="&#x121;" 
d="M172 -62q0 -28 33.5 -42.5t92.5 -14.5q60 0 97 17.5t37 43.5q0 24 -22 31.5t-65 7.5h-62q-27 0 -44.5 1.5t-31.5 4.5q-19 -12 -27 -23.5t-8 -25.5zM52 -84q0 61 77 99v4q-20 13 -35 33t-15 52q0 25 16.5 50t42.5 43v4q-27 18 -46 50.5t-19 76.5q0 45 17.5 78.5t46.5 56
t67.5 34t80.5 11.5q46 0 82 -12h201v-107h-101q9 -11 16 -28.5t7 -37.5q0 -43 -16 -74t-43.5 -51.5t-65 -30.5t-80.5 -10q-32 0 -68 10q-11 -8 -16.5 -16t-5.5 -20q0 -20 20 -29t64 -9h92q98 0 149.5 -29t51.5 -96q0 -39 -21 -72t-59 -56.5t-93 -37t-122 -13.5
q-48 0 -89.5 7.5t-71.5 23t-47 39.5t-17 57zM285 246q31 0 53.5 20.5t22.5 61.5q0 40 -22.5 60.5t-53.5 20.5t-52.5 -20.5t-21.5 -60.5q0 -41 21.5 -61.5t52.5 -20.5zM304 569q-43 0 -70.5 24t-27.5 65t27.5 66.5t70.5 25.5t70.5 -25.5t27.5 -66.5t-27.5 -65t-70.5 -24z" />
    <glyph glyph-name="uni0123" unicode="&#x123;" 
d="M172 -62q0 -28 33.5 -42.5t92.5 -14.5q60 0 97 17.5t37 43.5q0 24 -22 31.5t-65 7.5h-62q-27 0 -44.5 1.5t-31.5 4.5q-19 -12 -27 -23.5t-8 -25.5zM52 -84q0 61 77 99v4q-20 13 -35 33t-15 52q0 25 16.5 50t42.5 43v4q-27 18 -46 50.5t-19 76.5q0 45 17.5 78.5t46.5 56
t67.5 34t80.5 11.5q46 0 82 -12h201v-107h-101q9 -11 16 -28.5t7 -37.5q0 -43 -16 -74t-43.5 -51.5t-65 -30.5t-80.5 -10q-32 0 -68 10q-11 -8 -16.5 -16t-5.5 -20q0 -20 20 -29t64 -9h92q98 0 149.5 -29t51.5 -96q0 -39 -21 -72t-59 -56.5t-93 -37t-122 -13.5
q-48 0 -89.5 7.5t-71.5 23t-47 39.5t-17 57zM285 246q31 0 53.5 20.5t22.5 61.5q0 40 -22.5 60.5t-53.5 20.5t-52.5 -20.5t-21.5 -60.5q0 -41 21.5 -61.5t52.5 -20.5zM339 545q-67 6 -94 25.5t-27 57.5q0 25 14.5 44t39 31.5t56.5 19.5t68 9l11 -59q-36 -4 -59.5 -12.5
t-23.5 -25.5q0 -26 43 -36l-28 -54v0z" />
    <glyph glyph-name="gcaron" unicode="&#x1e7;" 
d="M172 -62q0 -28 33.5 -42.5t92.5 -14.5q60 0 97 17.5t37 43.5q0 24 -22 31.5t-65 7.5h-62q-27 0 -44.5 1.5t-31.5 4.5q-19 -12 -27 -23.5t-8 -25.5zM52 -84q0 61 77 99v4q-20 13 -35 33t-15 52q0 25 16.5 50t42.5 43v4q-27 18 -46 50.5t-19 76.5q0 45 17.5 78.5t46.5 56
t67.5 34t80.5 11.5q46 0 82 -12h201v-107h-101q9 -11 16 -28.5t7 -37.5q0 -43 -16 -74t-43.5 -51.5t-65 -30.5t-80.5 -10q-32 0 -68 10q-11 -8 -16.5 -16t-5.5 -20q0 -20 20 -29t64 -9h92q98 0 149.5 -29t51.5 -96q0 -39 -21 -72t-59 -56.5t-93 -37t-122 -13.5
q-48 0 -89.5 7.5t-71.5 23t-47 39.5t-17 57zM285 246q31 0 53.5 20.5t22.5 61.5q0 40 -22.5 60.5t-53.5 20.5t-52.5 -20.5t-21.5 -60.5q0 -41 21.5 -61.5t52.5 -20.5zM142 741h107l53 -96h4l53 96h107l-100 -167h-124z" />
    <glyph glyph-name="uni1E21" unicode="&#x1e21;" 
d="M172 -62q0 -28 33.5 -42.5t92.5 -14.5q60 0 97 17.5t37 43.5q0 24 -22 31.5t-65 7.5h-62q-27 0 -44.5 1.5t-31.5 4.5q-19 -12 -27 -23.5t-8 -25.5zM52 -84q0 61 77 99v4q-20 13 -35 33t-15 52q0 25 16.5 50t42.5 43v4q-27 18 -46 50.5t-19 76.5q0 45 17.5 78.5t46.5 56
t67.5 34t80.5 11.5q46 0 82 -12h201v-107h-101q9 -11 16 -28.5t7 -37.5q0 -43 -16 -74t-43.5 -51.5t-65 -30.5t-80.5 -10q-32 0 -68 10q-11 -8 -16.5 -16t-5.5 -20q0 -20 20 -29t64 -9h92q98 0 149.5 -29t51.5 -96q0 -39 -21 -72t-59 -56.5t-93 -37t-122 -13.5
q-48 0 -89.5 7.5t-71.5 23t-47 39.5t-17 57zM285 246q31 0 53.5 20.5t22.5 61.5q0 40 -22.5 60.5t-53.5 20.5t-52.5 -20.5t-21.5 -60.5q0 -41 21.5 -61.5t52.5 -20.5zM166 685h276v-93h-276v93z" />
    <glyph glyph-name="uni00670303" 
d="M172 -62q0 -28 33.5 -42.5t92.5 -14.5q60 0 97 17.5t37 43.5q0 24 -22 31.5t-65 7.5h-62q-27 0 -44.5 1.5t-31.5 4.5q-19 -12 -27 -23.5t-8 -25.5zM52 -84q0 61 77 99v4q-20 13 -35 33t-15 52q0 25 16.5 50t42.5 43v4q-27 18 -46 50.5t-19 76.5q0 45 17.5 78.5t46.5 56
t67.5 34t80.5 11.5q46 0 82 -12h201v-107h-101q9 -11 16 -28.5t7 -37.5q0 -43 -16 -74t-43.5 -51.5t-65 -30.5t-80.5 -10q-32 0 -68 10q-11 -8 -16.5 -16t-5.5 -20q0 -20 20 -29t64 -9h92q98 0 149.5 -29t51.5 -96q0 -39 -21 -72t-59 -56.5t-93 -37t-122 -13.5
q-48 0 -89.5 7.5t-71.5 23t-47 39.5t-17 57zM285 246q31 0 53.5 20.5t22.5 61.5q0 40 -22.5 60.5t-53.5 20.5t-52.5 -20.5t-21.5 -60.5q0 -41 21.5 -61.5t52.5 -20.5zM133 575q9 73 40 108t77 35q18 0 33.5 -8t28 -18t23.5 -18t22 -8q16 0 26 11.5t17 40.5h75
q-9 -72 -40 -107.5t-77 -35.5q-19 0 -34 8.5t-28 18l-24 18t-21 8.5q-16 0 -26 -11.5t-17 -41.5h-75v0z" />
    <glyph glyph-name="hcircumflex" unicode="&#x125;" 
d="M72 701h147v-172l-8 -95q15 14 32.5 27.5t38 24t45 16.5t52.5 6q84 0 122.5 -54t38.5 -148v-306h-147v287q0 50 -16 73t-57 23q-30 0 -52.5 -13t-48.5 -39v-331h-147v701zM-18 750l96 120h144l96 -120h-113l-53 61h-4l-53 -61h-113z" />
    <glyph glyph-name="uni1E25" unicode="&#x1e25;" 
d="M72 701h147v-172l-8 -95q15 14 32.5 27.5t38 24t45 16.5t52.5 6q84 0 122.5 -54t38.5 -148v-306h-147v287q0 50 -16 73t-57 23q-30 0 -52.5 -13t-48.5 -39v-331h-147v701zM307 -253q-43 0 -70.5 24t-27.5 65t27.5 66.5t70.5 25.5t70.5 -25.5t27.5 -66.5t-27.5 -65
t-70.5 -24z" />
    <glyph glyph-name="uni1E2B" unicode="&#x1e2b;" 
d="M72 701h147v-172l-8 -95q15 14 32.5 27.5t38 24t45 16.5t52.5 6q84 0 122.5 -54t38.5 -148v-306h-147v287q0 50 -16 73t-57 23q-30 0 -52.5 -13t-48.5 -39v-331h-147v701zM307 -210q-35 0 -60.5 11.5t-42.5 30.5t-26 44.5t-10 52.5h82q3 -25 17 -42t40 -17t40 17t17 42
h82q-1 -27 -10 -52.5t-26 -44.5t-42.5 -30.5t-60.5 -11.5z" />
    <glyph glyph-name="hbar" unicode="&#x127;" 
d="M211 414q15 14 32.5 27.5t38 24t45 16.5t52.5 6q84 0 122.5 -54t38.5 -148v-286h-147v267q0 50 -16 73t-57 23q-30 0 -52.5 -13t-48.5 -39v-311h-147v556h-66v65l66 5v75h147v-74h182v-71h-182v-47z" />
    <glyph glyph-name="igrave" unicode="&#xec;" 
d="M79 496h346v-496h-147v381h-199v115zM188 741h150l89 -167h-107z" />
    <glyph glyph-name="iacute" unicode="&#xed;" 
d="M79 496h346v-496h-147v381h-199v115zM370 574h-107l89 167h150z" />
    <glyph glyph-name="icircumflex" unicode="&#xee;" 
d="M79 496h346v-496h-147v381h-199v115zM283 741h124l100 -167h-107l-53 95h-4l-53 -95h-107z" />
    <glyph glyph-name="itilde" unicode="&#x129;" 
d="M79 496h346v-496h-147v381h-199v115zM174 575q9 73 40 108t77 35q18 0 33.5 -8t28 -18t23.5 -18t22 -8q16 0 26 11.5t17 40.5h75q-9 -72 -40 -107.5t-77 -35.5q-19 0 -34 8.5t-28 18l-24 18t-21 8.5q-16 0 -26 -11.5t-17 -41.5h-75v0z" />
    <glyph glyph-name="idieresis" unicode="&#xef;" 
d="M79 496h346v-496h-147v381h-199v115zM236 571q-35 0 -57 22.5t-22 56.5q0 33 22 55.5t57 22.5t56.5 -22.5t21.5 -55.5q0 -34 -21.5 -56.5t-56.5 -22.5zM454 571q-35 0 -56.5 22.5t-21.5 56.5q0 33 21.5 55.5t56.5 22.5t57 -22.5t22 -55.5q0 -34 -22 -56.5t-57 -22.5z" />
    <glyph glyph-name="imacron" unicode="&#x12b;" 
d="M79 496h346v-496h-147v381h-199v115zM207 685h276v-93h-276v93z" />
    <glyph glyph-name="uni012D" unicode="&#x12d;" 
d="M79 496h346v-496h-147v381h-199v115zM345 574q-37 0 -64.5 13t-45.5 34.5t-27 50t-10 58.5h82q4 -32 19.5 -53.5t45.5 -21.5t45.5 21.5t19.5 53.5h82q-1 -30 -10 -58.5t-27 -50t-45.5 -34.5t-64.5 -13z" />
    <glyph glyph-name="uni01D0" unicode="&#x1d0;" 
d="M79 496h346v-496h-147v381h-199v115zM183 741h107l53 -96h4l53 96h107l-100 -167h-124z" />
    <glyph glyph-name="uni1EC9" unicode="&#x1ec9;" 
d="M79 496h346v-496h-147v381h-199v115zM299 615q18 3 31 9.5t13 20.5t-18 22.5t-61 10.5l17 74q92 -3 130 -27.5t38 -64.5q0 -26 -11 -44.5t-30 -31t-44.5 -19t-53.5 -8.5z" />
    <glyph glyph-name="uni1ECB" unicode="&#x1ecb;" 
d="M79 496h346v-496h-147v381h-199v115zM345 569q-43 0 -70.5 24t-27.5 65t27.5 66.5t70.5 25.5t70.5 -25.5t27.5 -66.5t-27.5 -65t-70.5 -24zM345 -253q-43 0 -70.5 24t-27.5 65t27.5 66.5t70.5 25.5t70.5 -25.5t27.5 -66.5t-27.5 -65t-70.5 -24z" />
    <glyph glyph-name="iogonek" unicode="&#x12f;" 
d="M278 381h-199v115h346v-496q-40 -15 -55.5 -38.5t-15.5 -46.5q0 -20 12.5 -29t29.5 -9q10 0 18.5 3.5t16.5 8.5l31 -66q-20 -15 -49 -24t-52 -9q-45 0 -75.5 23t-30.5 68q0 22 6.5 40.5t16.5 33.5t21.5 26l20.5 19h-42v381zM345 569q-43 0 -70.5 24t-27.5 65t27.5 66.5
t70.5 25.5t70.5 -25.5t27.5 -66.5t-27.5 -65t-70.5 -24z" />
    <glyph glyph-name="iogonek.d" 
d="M278 381h-199v115h346v-496q-40 -15 -55.5 -38.5t-15.5 -46.5q0 -20 12.5 -29t29.5 -9q10 0 18.5 3.5t16.5 8.5l31 -66q-20 -15 -49 -24t-52 -9q-45 0 -75.5 23t-30.5 68q0 22 6.5 40.5t16.5 33.5t21.5 26l20.5 19h-42v381z" />
    <glyph glyph-name="dotlessi" unicode="&#x131;" 
d="M79 496h346v-496h-147v381h-199v115z" />
    <glyph glyph-name="jcircumflex" unicode="&#x135;" 
d="M79 496h346v-466q0 -45 -10.5 -86t-37 -72t-71 -49.5t-111.5 -18.5q-46 0 -83.5 9.5t-69.5 24.5l43 105q30 -14 54.5 -19t46.5 -5q53 0 72.5 25.5t19.5 79.5v357h-199v115zM283 741h124l100 -167h-107l-53 95h-4l-53 -95h-107z" />
    <glyph glyph-name="uni0137" unicode="&#x137;" 
d="M76 701h147v-405h4l182 200h161l-188 -204l203 -292h-159l-130 202l-73 -77v-125h-147v701zM288 -42q68 -7 94.5 -26.5t26.5 -57.5q0 -26 -14.5 -44.5t-38.5 -31t-56 -19t-68 -8.5l-11 59q36 4 59.5 12t23.5 25q0 14 -10.5 22.5t-33.5 14.5l28 54v0z" />
    <glyph glyph-name="kgreenlandic" unicode="&#x138;" 
d="M76 496h147v-197l3 1l183 196h161l-188 -204l203 -292h-159l-129 195l-74 -72v-123h-147v496z" />
    <glyph glyph-name="lacute" unicode="&#x13a;" 
d="M62 701h291v-513q0 -23 6.5 -38.5t18 -25t26 -13.5t29.5 -4q17 0 36 3.5t42 12.5l33 -108l-37 -11t-34 -8.5t-36 -5.5t-42 -2q-94 0 -141.5 55.5t-47.5 150.5v391h-144v116zM308 757h-117l81 120h156z" />
    <glyph glyph-name="lcaron" unicode="&#x13e;" 
d="M62 701h291v-513q0 -23 6.5 -38.5t18 -25t26 -13.5t29.5 -4q17 0 36 3.5t42 12.5l33 -108l-37 -11t-34 -8.5t-36 -5.5t-42 -2q-94 0 -141.5 55.5t-47.5 150.5v391h-144v116zM414 548l-5 222h94l-2 -69l-24 -153h-63z" />
    <glyph glyph-name="ldot" unicode="&#x140;" 
d="M13 701h291v-513q0 -23 6.5 -38.5t18 -25t26 -13.5t29.5 -4q17 0 36 3.5t42 12.5l33 -108l-37 -11t-34 -8.5t-36 -5.5t-42 -2q-94 0 -141.5 55.5t-47.5 150.5v391h-144v116zM471 263q-43 0 -70.5 24t-27.5 65t27.5 66.5t70.5 25.5t70.5 -25.5t27.5 -66.5t-27.5 -65
t-70.5 -24z" />
    <glyph glyph-name="uni013C" unicode="&#x13c;" 
d="M62 701h291v-513q0 -23 6.5 -38.5t18 -25t26 -13.5t29.5 -4q17 0 36 3.5t42 12.5l33 -108l-37 -11t-34 -8.5t-36 -5.5t-42 -2q-94 0 -141.5 55.5t-47.5 150.5v391h-144v116zM326 -42q68 -7 94.5 -26.5t26.5 -57.5q0 -26 -14.5 -44.5t-38.5 -31t-56 -19t-68 -8.5l-11 59
q36 4 59.5 12t23.5 25q0 14 -10.5 22.5t-33.5 14.5l28 54v0z" />
    <glyph glyph-name="uni1E37" unicode="&#x1e37;" 
d="M62 701h291v-513q0 -23 6.5 -38.5t18 -25t26 -13.5t29.5 -4q17 0 36 3.5t42 12.5l33 -108l-37 -11t-34 -8.5t-36 -5.5t-42 -2q-94 0 -141.5 55.5t-47.5 150.5v391h-144v116zM362 -253q-43 0 -70.5 24t-27.5 65t27.5 66.5t70.5 25.5t70.5 -25.5t27.5 -66.5t-27.5 -65
t-70.5 -24z" />
    <glyph glyph-name="uni1E39" unicode="&#x1e39;" 
d="M62 701h291v-513q0 -23 6.5 -38.5t18 -25t26 -13.5t29.5 -4q17 0 36 3.5t42 12.5l33 -108l-37 -11t-34 -8.5t-36 -5.5t-42 -2q-94 0 -141.5 55.5t-47.5 150.5v391h-144v116zM134 897h276v-93h-276v93zM362 -253q-43 0 -70.5 24t-27.5 65t27.5 66.5t70.5 25.5t70.5 -25.5
t27.5 -66.5t-27.5 -65t-70.5 -24z" />
    <glyph glyph-name="uni1E3B" unicode="&#x1e3b;" 
d="M62 701h291v-513q0 -23 6.5 -38.5t18 -25t26 -13.5t29.5 -4q17 0 36 3.5t42 12.5l33 -108l-37 -11t-34 -8.5t-36 -5.5t-42 -2q-94 0 -141.5 55.5t-47.5 150.5v391h-144v116zM500 -189h-276v94h276v-94z" />
    <glyph glyph-name="lslash" unicode="&#x142;" 
d="M544 15l-37 -11t-34 -8.5t-36 -5.5t-42 -2q-94 0 -141.5 55.5t-47.5 150.5v82l-113 -63v117l113 64v191h-144v116h291v-234l148 80v-117l-148 -81v-161q0 -23 6.5 -38.5t18 -25t26 -13.5t29.5 -4q17 0 36 3.5t42 12.5z" />
    <glyph glyph-name="uni1E43" unicode="&#x1e43;" 
d="M36 496h110l11 -62h4q14 31 38.5 52.5t67.5 21.5q33 0 55.5 -20.5t31.5 -60.5q14 34 40.5 57.5t68.5 23.5q52 0 81 -42.5t29 -117.5v-348h-138v337q0 46 -28 46q-27 0 -46 -48v-335h-113v337q0 46 -29 46q-14 0 -24 -12t-21 -36v-335h-138v496zM303 -253q-43 0 -70.5 24
t-27.5 65t27.5 66.5t70.5 25.5t70.5 -25.5t27.5 -66.5t-27.5 -65t-70.5 -24z" />
    <glyph glyph-name="nacute" unicode="&#x144;" 
d="M72 496h120l11 -66h4q32 32 73.5 55t97.5 23q84 0 123 -54t39 -148v-306h-147v287q0 50 -16 73t-57 23q-30 0 -52.5 -13t-48.5 -39v-331h-147v496zM340 574h-107l89 167h150z" />
    <glyph glyph-name="ncaron" unicode="&#x148;" 
d="M72 496h120l11 -66h4q32 32 73.5 55t97.5 23q84 0 123 -54t39 -148v-306h-147v287q0 50 -16 73t-57 23q-30 0 -52.5 -13t-48.5 -39v-331h-147v496zM153 741h107l53 -96h4l53 96h107l-100 -167h-124z" />
    <glyph glyph-name="ntilde" unicode="&#xf1;" 
d="M72 496h120l11 -66h4q32 32 73.5 55t97.5 23q84 0 123 -54t39 -148v-306h-147v287q0 50 -16 73t-57 23q-30 0 -52.5 -13t-48.5 -39v-331h-147v496zM144 575q9 73 40 108t77 35q18 0 33.5 -8t28 -18t23.5 -18t22 -8q16 0 26 11.5t17 40.5h75q-9 -72 -40 -107.5t-77 -35.5
q-19 0 -34 8.5t-28 18l-24 18t-21 8.5q-16 0 -26 -11.5t-17 -41.5h-75v0z" />
    <glyph glyph-name="uni0146" unicode="&#x146;" 
d="M72 496h120l11 -66h4q32 32 73.5 55t97.5 23q84 0 123 -54t39 -148v-306h-147v287q0 50 -16 73t-57 23q-30 0 -52.5 -13t-48.5 -39v-331h-147v496zM270 -42q68 -7 94.5 -26.5t26.5 -57.5q0 -26 -14.5 -44.5t-38.5 -31t-56 -19t-68 -8.5l-11 59q36 4 59.5 12t23.5 25
q0 14 -10.5 22.5t-33.5 14.5l28 54v0z" />
    <glyph glyph-name="uni1E45" unicode="&#x1e45;" 
d="M72 496h120l11 -66h4q32 32 73.5 55t97.5 23q84 0 123 -54t39 -148v-306h-147v287q0 50 -16 73t-57 23q-30 0 -52.5 -13t-48.5 -39v-331h-147v496zM315 569q-43 0 -70.5 24t-27.5 65t27.5 66.5t70.5 25.5t70.5 -25.5t27.5 -66.5t-27.5 -65t-70.5 -24z" />
    <glyph glyph-name="uni1E47" unicode="&#x1e47;" 
d="M72 496h120l11 -66h4q32 32 73.5 55t97.5 23q84 0 123 -54t39 -148v-306h-147v287q0 50 -16 73t-57 23q-30 0 -52.5 -13t-48.5 -39v-331h-147v496zM306 -253q-43 0 -70.5 24t-27.5 65t27.5 66.5t70.5 25.5t70.5 -25.5t27.5 -66.5t-27.5 -65t-70.5 -24z" />
    <glyph glyph-name="uni1E49" unicode="&#x1e49;" 
d="M72 496h120l11 -66h4q32 32 73.5 55t97.5 23q84 0 123 -54t39 -148v-306h-147v287q0 50 -16 73t-57 23q-30 0 -52.5 -13t-48.5 -39v-331h-147v496zM444 -189h-276v94h276v-94z" />
    <glyph glyph-name="napostrophe" unicode="&#x149;" 
d="M-46 368q105 47 112 138q-5 -1 -10 -1.5t-10 -0.5q-41 0 -66 25t-25 67q0 46 26.5 73.5t68.5 27.5q57 0 87.5 -42.5t30.5 -117.5q0 -82 -43.5 -144.5t-131.5 -102.5zM351 432q29 31 64.5 53.5t85.5 22.5q74 0 108.5 -53.5t34.5 -146.5v-308h-147v289q0 49 -12.5 71.5
t-42.5 22.5q-24 0 -40.5 -13t-38.5 -37v-333h-147v496h120l11 -64h4z" />
    <glyph glyph-name="ograve" unicode="&#xf2;" 
d="M47 248q0 62 21 110.5t56.5 81.5t81 50.5t94.5 17.5t94.5 -17.5t81 -50.5t56.5 -81.5t21 -110.5t-21 -110.5t-56.5 -81.5t-81 -50.5t-94.5 -17.5t-94.5 17.5t-81 50.5t-56.5 81.5t-21 110.5zM198 248q0 -65 25.5 -103t76.5 -38t76.5 38t25.5 103t-25.5 103t-76.5 38
t-76.5 -38t-25.5 -103zM143 741h150l89 -167h-107z" />
    <glyph glyph-name="oacute" unicode="&#xf3;" 
d="M47 248q0 62 21 110.5t56.5 81.5t81 50.5t94.5 17.5t94.5 -17.5t81 -50.5t56.5 -81.5t21 -110.5t-21 -110.5t-56.5 -81.5t-81 -50.5t-94.5 -17.5t-94.5 17.5t-81 50.5t-56.5 81.5t-21 110.5zM198 248q0 -65 25.5 -103t76.5 -38t76.5 38t25.5 103t-25.5 103t-76.5 38
t-76.5 -38t-25.5 -103zM325 574h-107l89 167h150z" />
    <glyph glyph-name="ocircumflex" unicode="&#xf4;" 
d="M47 248q0 62 21 110.5t56.5 81.5t81 50.5t94.5 17.5t94.5 -17.5t81 -50.5t56.5 -81.5t21 -110.5t-21 -110.5t-56.5 -81.5t-81 -50.5t-94.5 -17.5t-94.5 17.5t-81 50.5t-56.5 81.5t-21 110.5zM198 248q0 -65 25.5 -103t76.5 -38t76.5 38t25.5 103t-25.5 103t-76.5 38
t-76.5 -38t-25.5 -103zM238 741h124l100 -167h-107l-53 95h-4l-53 -95h-107z" />
    <glyph glyph-name="otilde" unicode="&#xf5;" 
d="M47 248q0 62 21 110.5t56.5 81.5t81 50.5t94.5 17.5t94.5 -17.5t81 -50.5t56.5 -81.5t21 -110.5t-21 -110.5t-56.5 -81.5t-81 -50.5t-94.5 -17.5t-94.5 17.5t-81 50.5t-56.5 81.5t-21 110.5zM198 248q0 -65 25.5 -103t76.5 -38t76.5 38t25.5 103t-25.5 103t-76.5 38
t-76.5 -38t-25.5 -103zM129 575q9 73 40 108t77 35q18 0 33.5 -8t28 -18t23.5 -18t22 -8q16 0 26 11.5t17 40.5h75q-9 -72 -40 -107.5t-77 -35.5q-19 0 -34 8.5t-28 18l-24 18t-21 8.5q-16 0 -26 -11.5t-17 -41.5h-75v0z" />
    <glyph glyph-name="odieresis" unicode="&#xf6;" 
d="M47 248q0 62 21 110.5t56.5 81.5t81 50.5t94.5 17.5t94.5 -17.5t81 -50.5t56.5 -81.5t21 -110.5t-21 -110.5t-56.5 -81.5t-81 -50.5t-94.5 -17.5t-94.5 17.5t-81 50.5t-56.5 81.5t-21 110.5zM198 248q0 -65 25.5 -103t76.5 -38t76.5 38t25.5 103t-25.5 103t-76.5 38
t-76.5 -38t-25.5 -103zM191 571q-35 0 -57 22.5t-22 56.5q0 33 22 55.5t57 22.5t56.5 -22.5t21.5 -55.5q0 -34 -21.5 -56.5t-56.5 -22.5zM409 571q-35 0 -56.5 22.5t-21.5 56.5q0 33 21.5 55.5t56.5 22.5t57 -22.5t22 -55.5q0 -34 -22 -56.5t-57 -22.5z" />
    <glyph glyph-name="omacron" unicode="&#x14d;" 
d="M47 248q0 62 21 110.5t56.5 81.5t81 50.5t94.5 17.5t94.5 -17.5t81 -50.5t56.5 -81.5t21 -110.5t-21 -110.5t-56.5 -81.5t-81 -50.5t-94.5 -17.5t-94.5 17.5t-81 50.5t-56.5 81.5t-21 110.5zM198 248q0 -65 25.5 -103t76.5 -38t76.5 38t25.5 103t-25.5 103t-76.5 38
t-76.5 -38t-25.5 -103zM162 685h276v-93h-276v93z" />
    <glyph glyph-name="uni014F" unicode="&#x14f;" 
d="M47 248q0 62 21 110.5t56.5 81.5t81 50.5t94.5 17.5t94.5 -17.5t81 -50.5t56.5 -81.5t21 -110.5t-21 -110.5t-56.5 -81.5t-81 -50.5t-94.5 -17.5t-94.5 17.5t-81 50.5t-56.5 81.5t-21 110.5zM198 248q0 -65 25.5 -103t76.5 -38t76.5 38t25.5 103t-25.5 103t-76.5 38
t-76.5 -38t-25.5 -103zM300 574q-37 0 -64.5 13t-45.5 34.5t-27 50t-10 58.5h82q4 -32 19.5 -53.5t45.5 -21.5t45.5 21.5t19.5 53.5h82q-1 -30 -10 -58.5t-27 -50t-45.5 -34.5t-64.5 -13z" />
    <glyph glyph-name="ohungarumlaut" unicode="&#x151;" 
d="M47 248q0 62 21 110.5t56.5 81.5t81 50.5t94.5 17.5t94.5 -17.5t81 -50.5t56.5 -81.5t21 -110.5t-21 -110.5t-56.5 -81.5t-81 -50.5t-94.5 -17.5t-94.5 17.5t-81 50.5t-56.5 81.5t-21 110.5zM198 248q0 -65 25.5 -103t76.5 -38t76.5 38t25.5 103t-25.5 103t-76.5 38
t-76.5 -38t-25.5 -103zM243 724h117l-95 -151h-90zM414 724h117l-95 -151h-91z" />
    <glyph glyph-name="uni01D2" unicode="&#x1d2;" 
d="M47 248q0 62 21 110.5t56.5 81.5t81 50.5t94.5 17.5t94.5 -17.5t81 -50.5t56.5 -81.5t21 -110.5t-21 -110.5t-56.5 -81.5t-81 -50.5t-94.5 -17.5t-94.5 17.5t-81 50.5t-56.5 81.5t-21 110.5zM198 248q0 -65 25.5 -103t76.5 -38t76.5 38t25.5 103t-25.5 103t-76.5 38
t-76.5 -38t-25.5 -103zM138 741h107l53 -96h4l53 96h107l-100 -167h-124z" />
    <glyph glyph-name="uni1ECD" unicode="&#x1ecd;" 
d="M47 248q0 62 21 110.5t56.5 81.5t81 50.5t94.5 17.5t94.5 -17.5t81 -50.5t56.5 -81.5t21 -110.5t-21 -110.5t-56.5 -81.5t-81 -50.5t-94.5 -17.5t-94.5 17.5t-81 50.5t-56.5 81.5t-21 110.5zM198 248q0 -65 25.5 -103t76.5 -38t76.5 38t25.5 103t-25.5 103t-76.5 38
t-76.5 -38t-25.5 -103zM300 -253q-43 0 -70.5 24t-27.5 65t27.5 66.5t70.5 25.5t70.5 -25.5t27.5 -66.5t-27.5 -65t-70.5 -24z" />
    <glyph glyph-name="uni1ECF" unicode="&#x1ecf;" 
d="M47 248q0 62 21 110.5t56.5 81.5t81 50.5t94.5 17.5t94.5 -17.5t81 -50.5t56.5 -81.5t21 -110.5t-21 -110.5t-56.5 -81.5t-81 -50.5t-94.5 -17.5t-94.5 17.5t-81 50.5t-56.5 81.5t-21 110.5zM198 248q0 -65 25.5 -103t76.5 -38t76.5 38t25.5 103t-25.5 103t-76.5 38
t-76.5 -38t-25.5 -103zM254 615q18 3 31 9.5t13 20.5t-18 22.5t-61 10.5l17 74q92 -3 130 -27.5t38 -64.5q0 -26 -11 -44.5t-30 -31t-44.5 -19t-53.5 -8.5z" />
    <glyph glyph-name="uni1ED1" unicode="&#x1ed1;" 
d="M47 248q0 62 21 110.5t56.5 81.5t81 50.5t94.5 17.5t94.5 -17.5t81 -50.5t56.5 -81.5t21 -110.5t-21 -110.5t-56.5 -81.5t-81 -50.5t-94.5 -17.5t-94.5 17.5t-81 50.5t-56.5 81.5t-21 110.5zM198 248q0 -65 25.5 -103t76.5 -38t76.5 38t25.5 103t-25.5 103t-76.5 38
t-76.5 -38t-25.5 -103zM242 702h116l81 -128h-90l-47 65h-4l-47 -65h-90zM475 764h109l-95 -118h-82z" />
    <glyph glyph-name="uni1ED3" unicode="&#x1ed3;" 
d="M47 248q0 62 21 110.5t56.5 81.5t81 50.5t94.5 17.5t94.5 -17.5t81 -50.5t56.5 -81.5t21 -110.5t-21 -110.5t-56.5 -81.5t-81 -50.5t-94.5 -17.5t-94.5 17.5t-81 50.5t-56.5 81.5t-21 110.5zM198 248q0 -65 25.5 -103t76.5 -38t76.5 38t25.5 103t-25.5 103t-76.5 38
t-76.5 -38t-25.5 -103zM242 702h116l81 -128h-90l-47 65h-4l-47 -65h-90zM549 646h-82l-95 118h109z" />
    <glyph glyph-name="uni1ED5" unicode="&#x1ed5;" 
d="M47 248q0 62 21 110.5t56.5 81.5t81 50.5t94.5 17.5t94.5 -17.5t81 -50.5t56.5 -81.5t21 -110.5t-21 -110.5t-56.5 -81.5t-81 -50.5t-94.5 -17.5t-94.5 17.5t-81 50.5t-56.5 81.5t-21 110.5zM198 248q0 -65 25.5 -103t76.5 -38t76.5 38t25.5 103t-25.5 103t-76.5 38
t-76.5 -38t-25.5 -103zM242 702h116l81 -128h-90l-47 65h-4l-47 -65h-90zM428 678q14 3 22 9t8 19q0 14 -13.5 22.5t-51.5 10.5l14 62q82 -2 114.5 -23t32.5 -56q0 -25 -9.5 -41.5t-25 -27t-36.5 -16.5t-45 -9z" />
    <glyph glyph-name="uni1ED7" unicode="&#x1ed7;" 
d="M47 248q0 62 21 110.5t56.5 81.5t81 50.5t94.5 17.5t94.5 -17.5t81 -50.5t56.5 -81.5t21 -110.5t-21 -110.5t-56.5 -81.5t-81 -50.5t-94.5 -17.5t-94.5 17.5t-81 50.5t-56.5 81.5t-21 110.5zM198 248q0 -65 25.5 -103t76.5 -38t76.5 38t25.5 103t-25.5 103t-76.5 38
t-76.5 -38t-25.5 -103zM233 684h134l80 -111h-95l-50 59h-4l-50 -59h-95zM154 720q7 60 32.5 87t58.5 27q20 0 34.5 -6t26 -13l21 -13t20.5 -6q28 0 35 38h64q-7 -59 -32.5 -86.5t-58.5 -27.5q-20 0 -34.5 6t-26 13l-21.5 13t-20 6q-28 0 -35 -38h-64z" />
    <glyph glyph-name="uni1ED9" unicode="&#x1ed9;" 
d="M47 248q0 62 21 110.5t56.5 81.5t81 50.5t94.5 17.5t94.5 -17.5t81 -50.5t56.5 -81.5t21 -110.5t-21 -110.5t-56.5 -81.5t-81 -50.5t-94.5 -17.5t-94.5 17.5t-81 50.5t-56.5 81.5t-21 110.5zM198 248q0 -65 25.5 -103t76.5 -38t76.5 38t25.5 103t-25.5 103t-76.5 38
t-76.5 -38t-25.5 -103zM238 741h124l100 -167h-107l-53 95h-4l-53 -95h-107zM300 -253q-43 0 -70.5 24t-27.5 65t27.5 66.5t70.5 25.5t70.5 -25.5t27.5 -66.5t-27.5 -65t-70.5 -24z" />
    <glyph glyph-name="oslash" unicode="&#xf8;" 
d="M240 123q26 -21 60 -21q51 0 76.5 40.5t25.5 105.5q0 17 -1.5 32t-5.5 29zM359 374q-25 20 -59 20q-51 0 -76.5 -40.5t-25.5 -105.5q0 -35 7 -60zM491 424q29 -33 45.5 -77t16.5 -99q0 -62 -21 -110.5t-56.5 -81.5t-81 -50.5t-94.5 -17.5q-76 0 -139 40l-44 -53l-55 42
l46 56q-28 32 -44.5 76t-16.5 99q0 62 21 110.5t56.5 81.5t81 50.5t94.5 17.5q76 0 138 -39l45 54l55 -43z" />
    <glyph glyph-name="oe" unicode="&#x153;" 
d="M144 248q0 -65 15 -103.5t47 -38.5q27 0 41.5 38.5t14.5 103.5t-14.5 103.5t-41.5 38.5q-32 0 -47 -38.5t-15 -103.5zM12 248q0 62 14.5 110.5t40 81.5t59.5 50.5t72 17.5q43 0 73 -23.5t48 -62.5q20 42 51 64t68 22t66 -19t48.5 -51.5t29.5 -76t10 -92.5
q0 -20 -1.5 -33.5t-4.5 -30.5h-222q8 -51 31.5 -76.5t58.5 -25.5q20 0 37 6t37 20l50 -94q-29 -23 -64 -35t-66 -12q-39 0 -72.5 20t-55.5 57q-22 -38 -51 -57.5t-74 -19.5q-38 0 -71.5 17.5t-58.5 50.5t-39 81.5t-14 110.5zM476 295q0 21 -2.5 39t-8 32t-15 22t-23.5 8
q-26 0 -43 -24.5t-22 -76.5h114z" />
    <glyph glyph-name="ohorn" unicode="&#x1a1;" 
d="M300 107q51 0 76.5 38t25.5 103t-25.5 103t-76.5 38t-76.5 -38t-25.5 -103t25.5 -103t76.5 -38zM555 638q11 -14 20.5 -34.5t9.5 -45.5q0 -51 -30 -80t-76 -41q34 -33 54 -80.5t20 -108.5q0 -62 -21 -110.5t-56.5 -81.5t-81 -50.5t-94.5 -17.5t-94.5 17.5t-81 50.5
t-56.5 81.5t-21 110.5t21 110.5t56.5 81.5t81 50.5t94.5 17.5q27 0 53.5 -5.5t51.5 -16.5q30 6 48 18.5t18 43.5q0 14 -5 26t-11 20z" />
    <glyph glyph-name="uni1EDB" unicode="&#x1edb;" 
d="M300 107q51 0 76.5 38t25.5 103t-25.5 103t-76.5 38t-76.5 -38t-25.5 -103t25.5 -103t76.5 -38zM555 638q11 -14 20.5 -34.5t9.5 -45.5q0 -51 -30 -80t-76 -41q34 -33 54 -80.5t20 -108.5q0 -62 -21 -110.5t-56.5 -81.5t-81 -50.5t-94.5 -17.5t-94.5 17.5t-81 50.5
t-56.5 81.5t-21 110.5t21 110.5t56.5 81.5t81 50.5t94.5 17.5q27 0 53.5 -5.5t51.5 -16.5q30 6 48 18.5t18 43.5q0 14 -5 26t-11 20zM325 574h-107l89 167h150z" />
    <glyph glyph-name="uni1EDD" unicode="&#x1edd;" 
d="M300 107q51 0 76.5 38t25.5 103t-25.5 103t-76.5 38t-76.5 -38t-25.5 -103t25.5 -103t76.5 -38zM555 638q11 -14 20.5 -34.5t9.5 -45.5q0 -51 -30 -80t-76 -41q34 -33 54 -80.5t20 -108.5q0 -62 -21 -110.5t-56.5 -81.5t-81 -50.5t-94.5 -17.5t-94.5 17.5t-81 50.5
t-56.5 81.5t-21 110.5t21 110.5t56.5 81.5t81 50.5t94.5 17.5q27 0 53.5 -5.5t51.5 -16.5q30 6 48 18.5t18 43.5q0 14 -5 26t-11 20zM143 741h150l89 -167h-107z" />
    <glyph glyph-name="uni1EDF" unicode="&#x1edf;" 
d="M300 107q51 0 76.5 38t25.5 103t-25.5 103t-76.5 38t-76.5 -38t-25.5 -103t25.5 -103t76.5 -38zM555 638q11 -14 20.5 -34.5t9.5 -45.5q0 -51 -30 -80t-76 -41q34 -33 54 -80.5t20 -108.5q0 -62 -21 -110.5t-56.5 -81.5t-81 -50.5t-94.5 -17.5t-94.5 17.5t-81 50.5
t-56.5 81.5t-21 110.5t21 110.5t56.5 81.5t81 50.5t94.5 17.5q27 0 53.5 -5.5t51.5 -16.5q30 6 48 18.5t18 43.5q0 14 -5 26t-11 20zM254 615q18 3 31 9.5t13 20.5t-18 22.5t-61 10.5l17 74q92 -3 130 -27.5t38 -64.5q0 -26 -11 -44.5t-30 -31t-44.5 -19t-53.5 -8.5z" />
    <glyph glyph-name="uni1EE1" unicode="&#x1ee1;" 
d="M300 107q51 0 76.5 38t25.5 103t-25.5 103t-76.5 38t-76.5 -38t-25.5 -103t25.5 -103t76.5 -38zM555 638q11 -14 20.5 -34.5t9.5 -45.5q0 -51 -30 -80t-76 -41q34 -33 54 -80.5t20 -108.5q0 -62 -21 -110.5t-56.5 -81.5t-81 -50.5t-94.5 -17.5t-94.5 17.5t-81 50.5
t-56.5 81.5t-21 110.5t21 110.5t56.5 81.5t81 50.5t94.5 17.5q27 0 53.5 -5.5t51.5 -16.5q30 6 48 18.5t18 43.5q0 14 -5 26t-11 20zM129 575q9 73 40 108t77 35q18 0 33.5 -8t28 -18t23.5 -18t22 -8q16 0 26 11.5t17 40.5h75q-9 -72 -40 -107.5t-77 -35.5q-19 0 -34 8.5
t-28 18l-24 18t-21 8.5q-16 0 -26 -11.5t-17 -41.5h-75v0z" />
    <glyph glyph-name="uni1EE3" unicode="&#x1ee3;" 
d="M300 107q51 0 76.5 38t25.5 103t-25.5 103t-76.5 38t-76.5 -38t-25.5 -103t25.5 -103t76.5 -38zM555 638q11 -14 20.5 -34.5t9.5 -45.5q0 -51 -30 -80t-76 -41q34 -33 54 -80.5t20 -108.5q0 -62 -21 -110.5t-56.5 -81.5t-81 -50.5t-94.5 -17.5t-94.5 17.5t-81 50.5
t-56.5 81.5t-21 110.5t21 110.5t56.5 81.5t81 50.5t94.5 17.5q27 0 53.5 -5.5t51.5 -16.5q30 6 48 18.5t18 43.5q0 14 -5 26t-11 20zM301 -253q-43 0 -70.5 24t-27.5 65t27.5 66.5t70.5 25.5t70.5 -25.5t27.5 -66.5t-27.5 -65t-70.5 -24z" />
    <glyph glyph-name="uni01EB" unicode="&#x1eb;" 
d="M214 -119q0 38 18.5 66t36.5 43q-45 5 -85.5 25t-70.5 53t-48 78t-18 102q0 62 21 110.5t56 81.5t80.5 50.5t95.5 17.5q49 0 95 -17.5t81 -50.5t56 -81.5t21 -110.5q0 -50 -12.5 -88t-35.5 -68t-55 -52.5t-71 -39.5q-36 -17 -51 -40t-15 -45q0 -20 13 -29t29 -9
q10 0 19 3.5t16 8.5l31 -66q-20 -15 -49 -24t-52 -9q-45 0 -75.5 23t-30.5 68zM198 248q0 -65 25.5 -103t76.5 -38t76.5 38t25.5 103t-25.5 103t-76.5 38t-76.5 -38t-25.5 -103z" />
    <glyph glyph-name="racute" unicode="&#x155;" 
d="M116 496h120l12 -108h3q37 61 89 90.5t112 29.5q33 0 53.5 -5t42.5 -15l-30 -123q-23 7 -41.5 10.5t-46.5 3.5q-46 0 -90.5 -27t-76.5 -94v-258h-147v496zM364 574h-107l89 167h150z" />
    <glyph glyph-name="uni0157" unicode="&#x157;" 
d="M116 496h120l12 -108h3q37 61 89 90.5t112 29.5q33 0 53.5 -5t42.5 -15l-30 -123q-23 7 -41.5 10.5t-46.5 3.5q-46 0 -90.5 -27t-76.5 -94v-258h-147v496zM168 -42q68 -7 94.5 -26.5t26.5 -57.5q0 -26 -14.5 -44.5t-38.5 -31t-56 -19t-68 -8.5l-11 59q36 4 59.5 12
t23.5 25q0 14 -10.5 22.5t-33.5 14.5l28 54v0z" />
    <glyph glyph-name="rcaron" unicode="&#x159;" 
d="M116 496h120l12 -108h3q37 61 89 90.5t112 29.5q33 0 53.5 -5t42.5 -15l-30 -123q-23 7 -41.5 10.5t-46.5 3.5q-46 0 -90.5 -27t-76.5 -94v-258h-147v496zM177 741h107l53 -96h4l53 96h107l-100 -167h-124z" />
    <glyph glyph-name="uni1E5B" unicode="&#x1e5b;" 
d="M116 496h120l12 -108h3q37 61 89 90.5t112 29.5q33 0 53.5 -5t42.5 -15l-30 -123q-23 7 -41.5 10.5t-46.5 3.5q-46 0 -90.5 -27t-76.5 -94v-258h-147v496zM204 -253q-43 0 -70.5 24t-27.5 65t27.5 66.5t70.5 25.5t70.5 -25.5t27.5 -66.5t-27.5 -65t-70.5 -24z" />
    <glyph glyph-name="uni1E5D" unicode="&#x1e5d;" 
d="M116 496h120l12 -108h3q37 61 89 90.5t112 29.5q33 0 53.5 -5t42.5 -15l-30 -123q-23 7 -41.5 10.5t-46.5 3.5q-46 0 -90.5 -27t-76.5 -94v-258h-147v496zM201 685h276v-93h-276v93zM204 -253q-43 0 -70.5 24t-27.5 65t27.5 66.5t70.5 25.5t70.5 -25.5t27.5 -66.5
t-27.5 -65t-70.5 -24z" />
    <glyph glyph-name="uni1E5F" unicode="&#x1e5f;" 
d="M116 496h120l12 -108h3q37 61 89 90.5t112 29.5q33 0 53.5 -5t42.5 -15l-30 -123q-23 7 -41.5 10.5t-46.5 3.5q-46 0 -90.5 -27t-76.5 -94v-258h-147v496zM342 -189h-276v94h276v-94z" />
    <glyph glyph-name="sacute" unicode="&#x15b;" 
d="M119 156q43 -27 86.5 -43t93.5 -16q51 0 73 11t22 31q0 23 -36.5 37.5t-96.5 31.5q-33 9 -64.5 21.5t-56.5 30t-40.5 40.5t-15.5 53q0 34 16 63t45.5 49t72 31.5t95.5 11.5q66 0 120.5 -21.5t93.5 -46.5l-66 -88q-34 20 -70 33.5t-75 13.5q-47 0 -66.5 -10t-19.5 -29
q0 -11 10 -20t27 -16t40.5 -13.5l49.5 -13.5q37 -10 70 -22.5t58 -29.5t40 -41t15 -56q0 -34 -16 -63t-46.5 -50.5t-76 -34t-105.5 -12.5q-67 0 -131 22t-112 54zM337 574h-107l89 167h150z" />
    <glyph glyph-name="scircumflex" unicode="&#x15d;" 
d="M119 156q43 -27 86.5 -43t93.5 -16q51 0 73 11t22 31q0 23 -36.5 37.5t-96.5 31.5q-33 9 -64.5 21.5t-56.5 30t-40.5 40.5t-15.5 53q0 34 16 63t45.5 49t72 31.5t95.5 11.5q66 0 120.5 -21.5t93.5 -46.5l-66 -88q-34 20 -70 33.5t-75 13.5q-47 0 -66.5 -10t-19.5 -29
q0 -11 10 -20t27 -16t40.5 -13.5l49.5 -13.5q37 -10 70 -22.5t58 -29.5t40 -41t15 -56q0 -34 -16 -63t-46.5 -50.5t-76 -34t-105.5 -12.5q-67 0 -131 22t-112 54zM250 741h124l100 -167h-107l-53 95h-4l-53 -95h-107z" />
    <glyph glyph-name="scaron" unicode="&#x161;" 
d="M119 156q43 -27 86.5 -43t93.5 -16q51 0 73 11t22 31q0 23 -36.5 37.5t-96.5 31.5q-33 9 -64.5 21.5t-56.5 30t-40.5 40.5t-15.5 53q0 34 16 63t45.5 49t72 31.5t95.5 11.5q66 0 120.5 -21.5t93.5 -46.5l-66 -88q-34 20 -70 33.5t-75 13.5q-47 0 -66.5 -10t-19.5 -29
q0 -11 10 -20t27 -16t40.5 -13.5l49.5 -13.5q37 -10 70 -22.5t58 -29.5t40 -41t15 -56q0 -34 -16 -63t-46.5 -50.5t-76 -34t-105.5 -12.5q-67 0 -131 22t-112 54zM150 741h107l53 -96h4l53 96h107l-100 -167h-124z" />
    <glyph glyph-name="uni015F" unicode="&#x15f;" 
d="M119 156q43 -27 86.5 -43t93.5 -16q51 0 73 11t22 31q0 23 -36.5 37.5t-96.5 31.5q-33 9 -64.5 21.5t-56.5 30t-40.5 40.5t-15.5 53q0 34 16 63t45.5 49t72 31.5t95.5 11.5q66 0 120.5 -21.5t93.5 -46.5l-66 -88q-34 20 -70 33.5t-75 13.5q-47 0 -66.5 -10t-19.5 -29
q0 -11 10 -20t27 -16t40.5 -13.5l49.5 -13.5q37 -10 70 -22.5t58 -29.5t40 -41t15 -56q0 -34 -16 -63t-46.5 -50.5t-76 -34t-105.5 -12.5q-67 0 -131 22t-112 54zM272 4h86l-20 -47q26 -8 42 -25.5t16 -48.5q0 -26 -14.5 -44.5t-38.5 -31.5t-56 -19.5t-68 -8.5l-11 59
q36 4 59.5 14t23.5 30q0 13 -12.5 23.5t-46.5 18.5z" />
    <glyph glyph-name="uni0219" unicode="&#x219;" 
d="M119 156q43 -27 86.5 -43t93.5 -16q51 0 73 11t22 31q0 23 -36.5 37.5t-96.5 31.5q-33 9 -64.5 21.5t-56.5 30t-40.5 40.5t-15.5 53q0 34 16 63t45.5 49t72 31.5t95.5 11.5q66 0 120.5 -21.5t93.5 -46.5l-66 -88q-34 20 -70 33.5t-75 13.5q-47 0 -66.5 -10t-19.5 -29
q0 -11 10 -20t27 -16t40.5 -13.5l49.5 -13.5q37 -10 70 -22.5t58 -29.5t40 -41t15 -56q0 -34 -16 -63t-46.5 -50.5t-76 -34t-105.5 -12.5q-67 0 -131 22t-112 54zM271 -42q68 -7 94.5 -26.5t26.5 -57.5q0 -26 -14.5 -44.5t-38.5 -31t-56 -19t-68 -8.5l-11 59q36 4 59.5 12
t23.5 25q0 14 -10.5 22.5t-33.5 14.5l28 54v0z" />
    <glyph glyph-name="uni1E61" unicode="&#x1e61;" 
d="M119 156q43 -27 86.5 -43t93.5 -16q51 0 73 11t22 31q0 23 -36.5 37.5t-96.5 31.5q-33 9 -64.5 21.5t-56.5 30t-40.5 40.5t-15.5 53q0 34 16 63t45.5 49t72 31.5t95.5 11.5q66 0 120.5 -21.5t93.5 -46.5l-66 -88q-34 20 -70 33.5t-75 13.5q-47 0 -66.5 -10t-19.5 -29
q0 -11 10 -20t27 -16t40.5 -13.5l49.5 -13.5q37 -10 70 -22.5t58 -29.5t40 -41t15 -56q0 -34 -16 -63t-46.5 -50.5t-76 -34t-105.5 -12.5q-67 0 -131 22t-112 54zM312 569q-43 0 -70.5 24t-27.5 65t27.5 66.5t70.5 25.5t70.5 -25.5t27.5 -66.5t-27.5 -65t-70.5 -24z" />
    <glyph glyph-name="uni1E63" unicode="&#x1e63;" 
d="M119 156q43 -27 86.5 -43t93.5 -16q51 0 73 11t22 31q0 23 -36.5 37.5t-96.5 31.5q-33 9 -64.5 21.5t-56.5 30t-40.5 40.5t-15.5 53q0 34 16 63t45.5 49t72 31.5t95.5 11.5q66 0 120.5 -21.5t93.5 -46.5l-66 -88q-34 20 -70 33.5t-75 13.5q-47 0 -66.5 -10t-19.5 -29
q0 -11 10 -20t27 -16t40.5 -13.5l49.5 -13.5q37 -10 70 -22.5t58 -29.5t40 -41t15 -56q0 -34 -16 -63t-46.5 -50.5t-76 -34t-105.5 -12.5q-67 0 -131 22t-112 54zM307 -253q-43 0 -70.5 24t-27.5 65t27.5 66.5t70.5 25.5t70.5 -25.5t27.5 -66.5t-27.5 -65t-70.5 -24z" />
    <glyph glyph-name="germandbls" unicode="&#xdf;" 
d="M61 495q0 46 14 86t42 69.5t71 46t100 16.5q48 0 84 -14.5t59 -38t34.5 -54t11.5 -62.5q0 -36 -9.5 -60.5t-21 -44l-21 -36t-9.5 -35.5q0 -17 11.5 -29t28.5 -24l37.5 -25.5t37.5 -32t28.5 -44t11.5 -61.5q0 -34 -11 -64t-33 -52t-54.5 -35t-75.5 -13q-42 0 -73.5 9.5
t-65.5 27.5l49 100q23 -15 44 -21.5t41 -6.5t31.5 11.5t11.5 31.5q0 19 -11.5 33t-28.5 26t-37.5 25t-37.5 30t-28.5 40t-11.5 56q0 30 9.5 52t20.5 42t20.5 41.5t9.5 50.5q0 26 -14 43.5t-39 17.5q-41 0 -60 -30t-19 -81v-486h-147v495z" />
    <glyph glyph-name="tcaron" unicode="&#x165;" 
d="M174 381h-125v109l132 6l19 132h121v-132h210v-115h-210v-174q0 -57 25 -80.5t79 -23.5q29 0 53 5t46 13l26 -106q-33 -10 -73.5 -18.5t-88.5 -8.5q-59 0 -100 16t-66.5 44.5t-36.5 68.5t-11 89v175zM390 548l-5 222h94l-2 -69l-24 -153h-63z" />
    <glyph glyph-name="uni0163" unicode="&#x163;" 
d="M174 381h-125v109l132 6l19 132h121v-132h210v-115h-210v-174q0 -57 25 -80.5t79 -23.5q29 0 53 5t46 13l26 -106q-33 -10 -73.5 -18.5t-88.5 -8.5q-59 0 -100 16t-66.5 44.5t-36.5 68.5t-11 89v175zM334 4h86l-20 -47q26 -8 42 -25.5t16 -48.5q0 -26 -14.5 -44.5
t-38.5 -31.5t-56 -19.5t-68 -8.5l-11 59q36 4 59.5 14t23.5 30q0 13 -12.5 23.5t-46.5 18.5z" />
    <glyph glyph-name="uni021B" unicode="&#x21b;" 
d="M174 381h-125v109l132 6l19 132h121v-132h210v-115h-210v-174q0 -57 25 -80.5t79 -23.5q29 0 53 5t46 13l26 -106q-33 -10 -73.5 -18.5t-88.5 -8.5q-59 0 -100 16t-66.5 44.5t-36.5 68.5t-11 89v175zM332 -42q68 -7 94.5 -26.5t26.5 -57.5q0 -26 -14.5 -44.5t-38.5 -31
t-56 -19t-68 -8.5l-11 59q36 4 59.5 12t23.5 25q0 14 -10.5 22.5t-33.5 14.5l28 54v0z" />
    <glyph glyph-name="uni1E6D" unicode="&#x1e6d;" 
d="M174 381h-125v109l132 6l19 132h121v-132h210v-115h-210v-174q0 -57 25 -80.5t79 -23.5q29 0 53 5t46 13l26 -106q-33 -10 -73.5 -18.5t-88.5 -8.5q-59 0 -100 16t-66.5 44.5t-36.5 68.5t-11 89v175zM368 -253q-43 0 -70.5 24t-27.5 65t27.5 66.5t70.5 25.5t70.5 -25.5
t27.5 -66.5t-27.5 -65t-70.5 -24z" />
    <glyph glyph-name="uni1E6F" unicode="&#x1e6f;" 
d="M174 381h-125v109l132 6l19 132h121v-132h210v-115h-210v-174q0 -57 25 -80.5t79 -23.5q29 0 53 5t46 13l26 -106q-33 -10 -73.5 -18.5t-88.5 -8.5q-59 0 -100 16t-66.5 44.5t-36.5 68.5t-11 89v175zM506 -189h-276v94h276v-94z" />
    <glyph glyph-name="uni1E97" unicode="&#x1e97;" 
d="M174 381h-125v109l132 6l19 132h121v-132h210v-115h-210v-174q0 -57 25 -80.5t79 -23.5q29 0 53 5t46 13l26 -106q-33 -10 -73.5 -18.5t-88.5 -8.5q-59 0 -100 16t-66.5 44.5t-36.5 68.5t-11 89v175zM157 711q-35 0 -57 22.5t-22 56.5q0 33 22 55.5t57 22.5t56.5 -22.5
t21.5 -55.5q0 -34 -21.5 -56.5t-56.5 -22.5zM375 711q-35 0 -56.5 22.5t-21.5 56.5q0 33 21.5 55.5t56.5 22.5t57 -22.5t22 -55.5q0 -34 -22 -56.5t-57 -22.5z" />
    <glyph glyph-name="ugrave" unicode="&#xf9;" 
d="M525 0h-120l-11 71h-4q-33 -38 -73 -60.5t-94 -22.5q-85 0 -123 54t-38 148v306h147v-287q0 -50 15 -73t57 -23q28 0 49.5 12t47.5 45v326h147v-496zM140 741h150l89 -167h-107z" />
    <glyph glyph-name="uacute" unicode="&#xfa;" 
d="M525 0h-120l-11 71h-4q-33 -38 -73 -60.5t-94 -22.5q-85 0 -123 54t-38 148v306h147v-287q0 -50 15 -73t57 -23q28 0 49.5 12t47.5 45v326h147v-496zM322 574h-107l89 167h150z" />
    <glyph glyph-name="ucircumflex" unicode="&#xfb;" 
d="M525 0h-120l-11 71h-4q-33 -38 -73 -60.5t-94 -22.5q-85 0 -123 54t-38 148v306h147v-287q0 -50 15 -73t57 -23q28 0 49.5 12t47.5 45v326h147v-496zM235 741h124l100 -167h-107l-53 95h-4l-53 -95h-107z" />
    <glyph glyph-name="utilde" unicode="&#x169;" 
d="M525 0h-120l-11 71h-4q-33 -38 -73 -60.5t-94 -22.5q-85 0 -123 54t-38 148v306h147v-287q0 -50 15 -73t57 -23q28 0 49.5 12t47.5 45v326h147v-496zM126 575q9 73 40 108t77 35q18 0 33.5 -8t28 -18t23.5 -18t22 -8q16 0 26 11.5t17 40.5h75q-9 -72 -40 -107.5
t-77 -35.5q-19 0 -34 8.5t-28 18l-24 18t-21 8.5q-16 0 -26 -11.5t-17 -41.5h-75v0z" />
    <glyph glyph-name="udieresis" unicode="&#xfc;" 
d="M525 0h-120l-11 71h-4q-33 -38 -73 -60.5t-94 -22.5q-85 0 -123 54t-38 148v306h147v-287q0 -50 15 -73t57 -23q28 0 49.5 12t47.5 45v326h147v-496zM188 571q-35 0 -57 22.5t-22 56.5q0 33 22 55.5t57 22.5t56.5 -22.5t21.5 -55.5q0 -34 -21.5 -56.5t-56.5 -22.5z
M406 571q-35 0 -56.5 22.5t-21.5 56.5q0 33 21.5 55.5t56.5 22.5t57 -22.5t22 -55.5q0 -34 -22 -56.5t-57 -22.5z" />
    <glyph glyph-name="umacron" unicode="&#x16b;" 
d="M525 0h-120l-11 71h-4q-33 -38 -73 -60.5t-94 -22.5q-85 0 -123 54t-38 148v306h147v-287q0 -50 15 -73t57 -23q28 0 49.5 12t47.5 45v326h147v-496zM159 685h276v-93h-276v93z" />
    <glyph glyph-name="ubreve" unicode="&#x16d;" 
d="M525 0h-120l-11 71h-4q-33 -38 -73 -60.5t-94 -22.5q-85 0 -123 54t-38 148v306h147v-287q0 -50 15 -73t57 -23q28 0 49.5 12t47.5 45v326h147v-496zM297 574q-37 0 -64.5 13t-45.5 34.5t-27 50t-10 58.5h82q4 -32 19.5 -53.5t45.5 -21.5t45.5 21.5t19.5 53.5h82
q-1 -30 -10 -58.5t-27 -50t-45.5 -34.5t-64.5 -13z" />
    <glyph glyph-name="uring" unicode="&#x16f;" 
d="M525 0h-120l-11 71h-4q-33 -38 -73 -60.5t-94 -22.5q-85 0 -123 54t-38 148v306h147v-287q0 -50 15 -73t57 -23q28 0 49.5 12t47.5 45v326h147v-496zM297 548q-51 0 -82 27.5t-31 74.5t31 74.5t82 27.5t82 -27.5t31 -74.5t-31 -74.5t-82 -27.5zM297 603q17 0 29 13t12 34
t-12 34t-29 13t-29 -13t-12 -34t12 -34t29 -13z" />
    <glyph glyph-name="uhungarumlaut" unicode="&#x171;" 
d="M525 0h-120l-11 71h-4q-33 -38 -73 -60.5t-94 -22.5q-85 0 -123 54t-38 148v306h147v-287q0 -50 15 -73t57 -23q28 0 49.5 12t47.5 45v326h147v-496zM240 724h117l-95 -151h-90zM411 724h117l-95 -151h-91z" />
    <glyph glyph-name="uni01D4" unicode="&#x1d4;" 
d="M525 0h-120l-11 71h-4q-33 -38 -73 -60.5t-94 -22.5q-85 0 -123 54t-38 148v306h147v-287q0 -50 15 -73t57 -23q28 0 49.5 12t47.5 45v326h147v-496zM135 741h107l53 -96h4l53 96h107l-100 -167h-124z" />
    <glyph glyph-name="uni01D6" unicode="&#x1d6;" 
d="M525 0h-120l-11 71h-4q-33 -38 -73 -60.5t-94 -22.5q-85 0 -123 54t-38 148v306h147v-287q0 -50 15 -73t57 -23q28 0 49.5 12t47.5 45v326h147v-496zM198 571q-27 0 -44.5 17.5t-17.5 43.5t17.5 44t44.5 18t44.5 -18t17.5 -44t-17.5 -43.5t-44.5 -17.5zM396 571
q-27 0 -44.5 17.5t-17.5 43.5t17.5 44t44.5 18t44.5 -18t17.5 -44t-17.5 -43.5t-44.5 -17.5zM159 825h276v-69h-276v69z" />
    <glyph glyph-name="uni01D8" unicode="&#x1d8;" 
d="M525 0h-120l-11 71h-4q-33 -38 -73 -60.5t-94 -22.5q-85 0 -123 54t-38 148v306h147v-287q0 -50 15 -73t57 -23q28 0 49.5 12t47.5 45v326h147v-496zM312 848h126l-115 -111h-94zM198 571q-27 0 -44.5 17.5t-17.5 43.5t17.5 44t44.5 18t44.5 -18t17.5 -44t-17.5 -43.5
t-44.5 -17.5zM396 571q-27 0 -44.5 17.5t-17.5 43.5t17.5 44t44.5 18t44.5 -18t17.5 -44t-17.5 -43.5t-44.5 -17.5z" />
    <glyph glyph-name="uni01DA" unicode="&#x1da;" 
d="M525 0h-120l-11 71h-4q-33 -38 -73 -60.5t-94 -22.5q-85 0 -123 54t-38 148v306h147v-287q0 -50 15 -73t57 -23q28 0 49.5 12t47.5 45v326h147v-496zM149 848h100l46 -58h4l46 58h100l-86 -111h-124zM198 571q-27 0 -44.5 17.5t-17.5 43.5t17.5 44t44.5 18t44.5 -18
t17.5 -44t-17.5 -43.5t-44.5 -17.5zM396 571q-27 0 -44.5 17.5t-17.5 43.5t17.5 44t44.5 18t44.5 -18t17.5 -44t-17.5 -43.5t-44.5 -17.5z" />
    <glyph glyph-name="uni01DC" unicode="&#x1dc;" 
d="M525 0h-120l-11 71h-4q-33 -38 -73 -60.5t-94 -22.5q-85 0 -123 54t-38 148v306h147v-287q0 -50 15 -73t57 -23q28 0 49.5 12t47.5 45v326h147v-496zM365 737h-94l-115 111h126zM396 571q-27 0 -44.5 17.5t-17.5 43.5t17.5 44t44.5 18t44.5 -18t17.5 -44t-17.5 -43.5
t-44.5 -17.5zM198 571q-27 0 -44.5 17.5t-17.5 43.5t17.5 44t44.5 18t44.5 -18t17.5 -44t-17.5 -43.5t-44.5 -17.5z" />
    <glyph glyph-name="uni1EE5" unicode="&#x1ee5;" 
d="M525 0h-120l-11 71h-4q-33 -38 -73 -60.5t-94 -22.5q-85 0 -123 54t-38 148v306h147v-287q0 -50 15 -73t57 -23q28 0 49.5 12t47.5 45v326h147v-496zM319 -253q-43 0 -70.5 24t-27.5 65t27.5 66.5t70.5 25.5t70.5 -25.5t27.5 -66.5t-27.5 -65t-70.5 -24z" />
    <glyph glyph-name="uni1EE7" unicode="&#x1ee7;" 
d="M525 0h-120l-11 71h-4q-33 -38 -73 -60.5t-94 -22.5q-85 0 -123 54t-38 148v306h147v-287q0 -50 15 -73t57 -23q28 0 49.5 12t47.5 45v326h147v-496zM251 615q18 3 31 9.5t13 20.5t-18 22.5t-61 10.5l17 74q92 -3 130 -27.5t38 -64.5q0 -26 -11 -44.5t-30 -31t-44.5 -19
t-53.5 -8.5z" />
    <glyph glyph-name="uogonek" unicode="&#x173;" 
d="M525 0q-50 -15 -69 -38.5t-19 -46.5q0 -20 13 -29t29 -9q10 0 19 3.5t16 8.5l31 -66q-20 -15 -49 -24t-52 -9q-45 0 -75.5 23t-30.5 68q0 22 7 40.5t17.5 33.5t22 25.5t21.5 17.5l-12 73h-4q-33 -38 -73 -60.5t-94 -22.5q-85 0 -123 54t-38 148v306h147v-287
q0 -50 15 -73t57 -23q28 0 49.5 12t47.5 45v326h147v-496z" />
    <glyph glyph-name="uhorn" unicode="&#x1b0;" 
d="M593 648q11 -14 20 -34.5t9 -45.5q0 -49 -28 -77.5t-69 -40.5v-450h-120l-11 71h-4q-33 -38 -73 -60.5t-94 -22.5q-85 0 -123 54t-38 148v306h147v-287q0 -50 15 -73t57 -23q28 0 49.5 12t47.5 45v326h49q14 1 28.5 3.5t26 9t19 18t7.5 31.5q0 14 -5 26t-10 20z" />
    <glyph glyph-name="uni1EE9" unicode="&#x1ee9;" 
d="M593 648q11 -14 20 -34.5t9 -45.5q0 -49 -28 -77.5t-69 -40.5v-450h-120l-11 71h-4q-33 -38 -73 -60.5t-94 -22.5q-85 0 -123 54t-38 148v306h147v-287q0 -50 15 -73t57 -23q28 0 49.5 12t47.5 45v326h49q14 1 28.5 3.5t26 9t19 18t7.5 31.5q0 14 -5 26t-10 20zM320 574
h-107l89 167h150z" />
    <glyph glyph-name="uni1EEB" unicode="&#x1eeb;" 
d="M593 648q11 -14 20 -34.5t9 -45.5q0 -49 -28 -77.5t-69 -40.5v-450h-120l-11 71h-4q-33 -38 -73 -60.5t-94 -22.5q-85 0 -123 54t-38 148v306h147v-287q0 -50 15 -73t57 -23q28 0 49.5 12t47.5 45v326h49q14 1 28.5 3.5t26 9t19 18t7.5 31.5q0 14 -5 26t-10 20zM138 741
h150l89 -167h-107z" />
    <glyph glyph-name="uni1EED" unicode="&#x1eed;" 
d="M593 648q11 -14 20 -34.5t9 -45.5q0 -49 -28 -77.5t-69 -40.5v-450h-120l-11 71h-4q-33 -38 -73 -60.5t-94 -22.5q-85 0 -123 54t-38 148v306h147v-287q0 -50 15 -73t57 -23q28 0 49.5 12t47.5 45v326h49q14 1 28.5 3.5t26 9t19 18t7.5 31.5q0 14 -5 26t-10 20zM249 615
q18 3 31 9.5t13 20.5t-18 22.5t-61 10.5l17 74q92 -3 130 -27.5t38 -64.5q0 -26 -11 -44.5t-30 -31t-44.5 -19t-53.5 -8.5z" />
    <glyph glyph-name="uni1EEF" unicode="&#x1eef;" 
d="M593 648q11 -14 20 -34.5t9 -45.5q0 -49 -28 -77.5t-69 -40.5v-450h-120l-11 71h-4q-33 -38 -73 -60.5t-94 -22.5q-85 0 -123 54t-38 148v306h147v-287q0 -50 15 -73t57 -23q28 0 49.5 12t47.5 45v326h49q14 1 28.5 3.5t26 9t19 18t7.5 31.5q0 14 -5 26t-10 20zM124 575
q9 73 40 108t77 35q18 0 33.5 -8t28 -18t23.5 -18t22 -8q16 0 26 11.5t17 40.5h75q-9 -72 -40 -107.5t-77 -35.5q-19 0 -34 8.5t-28 18l-24 18t-21 8.5q-16 0 -26 -11.5t-17 -41.5h-75v0z" />
    <glyph glyph-name="uni1EF1" unicode="&#x1ef1;" 
d="M593 648q11 -14 20 -34.5t9 -45.5q0 -49 -28 -77.5t-69 -40.5v-450h-120l-11 71h-4q-33 -38 -73 -60.5t-94 -22.5q-85 0 -123 54t-38 148v306h147v-287q0 -50 15 -73t57 -23q28 0 49.5 12t47.5 45v326h49q14 1 28.5 3.5t26 9t19 18t7.5 31.5q0 14 -5 26t-10 20zM308 -253
q-43 0 -70.5 24t-27.5 65t27.5 66.5t70.5 25.5t70.5 -25.5t27.5 -66.5t-27.5 -65t-70.5 -24z" />
    <glyph glyph-name="wgrave" unicode="&#x1e81;" 
d="M4 496h144l30 -230q5 -37 8.5 -73t8.5 -74h3l10 75t13 72l31 164h103l33 -164q7 -37 13 -73t11 -74h4q5 38 8 74t8 73l30 230h134l-77 -496h-170l-28 165q-5 35 -9.5 70.5l-9.5 75.5h-4l-6.5 -61t-11.5 -85l-27 -165h-167zM144 741h150l89 -167h-107z" />
    <glyph glyph-name="wacute" unicode="&#x1e83;" 
d="M4 496h144l30 -230q5 -37 8.5 -73t8.5 -74h3l10 75t13 72l31 164h103l33 -164q7 -37 13 -73t11 -74h4q5 38 8 74t8 73l30 230h134l-77 -496h-170l-28 165q-5 35 -9.5 70.5l-9.5 75.5h-4l-6.5 -61t-11.5 -85l-27 -165h-167zM326 574h-107l89 167h150z" />
    <glyph glyph-name="wcircumflex" unicode="&#x175;" 
d="M4 496h144l30 -230q5 -37 8.5 -73t8.5 -74h3l10 75t13 72l31 164h103l33 -164q7 -37 13 -73t11 -74h4q5 38 8 74t8 73l30 230h134l-77 -496h-170l-28 165q-5 35 -9.5 70.5l-9.5 75.5h-4l-6.5 -61t-11.5 -85l-27 -165h-167zM239 741h124l100 -167h-107l-53 95h-4l-53 -95
h-107z" />
    <glyph glyph-name="wdieresis" unicode="&#x1e85;" 
d="M4 496h144l30 -230q5 -37 8.5 -73t8.5 -74h3l10 75t13 72l31 164h103l33 -164q7 -37 13 -73t11 -74h4q5 38 8 74t8 73l30 230h134l-77 -496h-170l-28 165q-5 35 -9.5 70.5l-9.5 75.5h-4l-6.5 -61t-11.5 -85l-27 -165h-167zM192 571q-35 0 -57 22.5t-22 56.5q0 33 22 55.5
t57 22.5t56.5 -22.5t21.5 -55.5q0 -34 -21.5 -56.5t-56.5 -22.5zM410 571q-35 0 -56.5 22.5t-21.5 56.5q0 33 21.5 55.5t56.5 22.5t57 -22.5t22 -55.5q0 -34 -22 -56.5t-57 -22.5z" />
    <glyph glyph-name="ygrave" unicode="&#x1ef3;" 
d="M93 -72q19 -6 39 -6q43 0 67.5 18t36.5 47l10 26l-215 483h146l83 -213q14 -35 26 -72.5l24 -76.5h4q10 37 22 74.5l23 74.5l73 213h139l-196 -501q-18 -47 -39 -82.5t-48 -59t-62.5 -35.5t-82.5 -12q-22 0 -41 2.5t-35 7.5l26 112v0zM150 741h150l89 -167h-107z" />
    <glyph glyph-name="yacute" unicode="&#xfd;" 
d="M93 -72q19 -6 39 -6q43 0 67.5 18t36.5 47l10 26l-215 483h146l83 -213q14 -35 26 -72.5l24 -76.5h4q10 37 22 74.5l23 74.5l73 213h139l-196 -501q-18 -47 -39 -82.5t-48 -59t-62.5 -35.5t-82.5 -12q-22 0 -41 2.5t-35 7.5l26 112v0zM332 574h-107l89 167h150z" />
    <glyph glyph-name="ycircumflex" unicode="&#x177;" 
d="M93 -72q19 -6 39 -6q43 0 67.5 18t36.5 47l10 26l-215 483h146l83 -213q14 -35 26 -72.5l24 -76.5h4q10 37 22 74.5l23 74.5l73 213h139l-196 -501q-18 -47 -39 -82.5t-48 -59t-62.5 -35.5t-82.5 -12q-22 0 -41 2.5t-35 7.5l26 112v0zM245 741h124l100 -167h-107l-53 95
h-4l-53 -95h-107z" />
    <glyph glyph-name="ydieresis" unicode="&#xff;" 
d="M93 -72q19 -6 39 -6q43 0 67.5 18t36.5 47l10 26l-215 483h146l83 -213q14 -35 26 -72.5l24 -76.5h4q10 37 22 74.5l23 74.5l73 213h139l-196 -501q-18 -47 -39 -82.5t-48 -59t-62.5 -35.5t-82.5 -12q-22 0 -41 2.5t-35 7.5l26 112v0zM198 571q-35 0 -57 22.5t-22 56.5
q0 33 22 55.5t57 22.5t56.5 -22.5t21.5 -55.5q0 -34 -21.5 -56.5t-56.5 -22.5zM416 571q-35 0 -56.5 22.5t-21.5 56.5q0 33 21.5 55.5t56.5 22.5t57 -22.5t22 -55.5q0 -34 -22 -56.5t-57 -22.5z" />
    <glyph glyph-name="uni1E8F" unicode="&#x1e8f;" 
d="M93 -72q19 -6 39 -6q43 0 67.5 18t36.5 47l10 26l-215 483h146l83 -213q14 -35 26 -72.5l24 -76.5h4q10 37 22 74.5l23 74.5l73 213h139l-196 -501q-18 -47 -39 -82.5t-48 -59t-62.5 -35.5t-82.5 -12q-22 0 -41 2.5t-35 7.5l26 112v0zM307 569q-43 0 -70.5 24t-27.5 65
t27.5 66.5t70.5 25.5t70.5 -25.5t27.5 -66.5t-27.5 -65t-70.5 -24z" />
    <glyph glyph-name="uni1EF5" unicode="&#x1ef5;" 
d="M93 -72q19 -6 39 -6q43 0 67.5 18t36.5 47l10 26l-215 483h146l83 -213q14 -35 26 -72.5l24 -76.5h4q10 37 22 74.5l23 74.5l73 213h139l-196 -501q-18 -47 -39 -82.5t-48 -59t-62.5 -35.5t-82.5 -12q-22 0 -41 2.5t-35 7.5l26 112v0zM486 -245q-43 0 -70.5 24t-27.5 65
t27.5 66.5t70.5 25.5t70.5 -25.5t27.5 -66.5t-27.5 -65t-70.5 -24z" />
    <glyph glyph-name="uni1EF7" unicode="&#x1ef7;" 
d="M93 -72q19 -6 39 -6q43 0 67.5 18t36.5 47l10 26l-215 483h146l83 -213q14 -35 26 -72.5l24 -76.5h4q10 37 22 74.5l23 74.5l73 213h139l-196 -501q-18 -47 -39 -82.5t-48 -59t-62.5 -35.5t-82.5 -12q-22 0 -41 2.5t-35 7.5l26 112v0zM260 615q18 3 31 9.5t13 20.5
t-18 22.5t-61 10.5l17 74q92 -3 130 -27.5t38 -64.5q0 -26 -11 -44.5t-30 -31t-44.5 -19t-53.5 -8.5z" />
    <glyph glyph-name="uni1EF9" unicode="&#x1ef9;" 
d="M93 -72q19 -6 39 -6q43 0 67.5 18t36.5 47l10 26l-215 483h146l83 -213q14 -35 26 -72.5l24 -76.5h4q10 37 22 74.5l23 74.5l73 213h139l-196 -501q-18 -47 -39 -82.5t-48 -59t-62.5 -35.5t-82.5 -12q-22 0 -41 2.5t-35 7.5l26 112v0zM136 575q9 73 40 108t77 35
q18 0 33.5 -8t28 -18t23.5 -18t22 -8q16 0 26 11.5t17 40.5h75q-9 -72 -40 -107.5t-77 -35.5q-19 0 -34 8.5t-28 18l-24 18t-21 8.5q-16 0 -26 -11.5t-17 -41.5h-75v0z" />
    <glyph glyph-name="zacute" unicode="&#x17a;" 
d="M70 79l260 302h-228v115h431v-78l-260 -303h268v-115h-471v79zM348 574h-107l89 167h150z" />
    <glyph glyph-name="zcaron" unicode="&#x17e;" 
d="M70 79l260 302h-228v115h431v-78l-260 -303h268v-115h-471v79zM161 741h107l53 -96h4l53 96h107l-100 -167h-124z" />
    <glyph glyph-name="zdotaccent" unicode="&#x17c;" 
d="M70 79l260 302h-228v115h431v-78l-260 -303h268v-115h-471v79zM323 569q-43 0 -70.5 24t-27.5 65t27.5 66.5t70.5 25.5t70.5 -25.5t27.5 -66.5t-27.5 -65t-70.5 -24z" />
    <glyph glyph-name="uni1E93" unicode="&#x1e93;" 
d="M70 79l260 302h-228v115h431v-78l-260 -303h268v-115h-471v79zM318 -253q-43 0 -70.5 24t-27.5 65t27.5 66.5t70.5 25.5t70.5 -25.5t27.5 -66.5t-27.5 -65t-70.5 -24z" />
    <glyph glyph-name="eth" unicode="&#xf0;" 
d="M300 107q52 0 82.5 38t30.5 113v17.5t-1 16.5q-26 29 -54 41.5t-60 12.5q-54 0 -85.5 -29t-31.5 -89q0 -30 9.5 -52.5t25.5 -37.5t38 -23t46 -8zM407 606q64 -60 103.5 -143t39.5 -197q0 -60 -17.5 -111t-50 -88t-80 -58t-107.5 -21q-51 0 -96 17t-78.5 48t-53.5 75.5
t-20 99.5q0 54 18 96t49 71t70.5 44.5t83.5 15.5q36 0 69 -13t57 -42q-14 45 -38.5 81.5t-59.5 68.5l-149 -75l-38 65l120 60q-43 28 -94 51l64 89q38 -17 74.5 -37.5t70.5 -44.5l136 69l38 -65z" />
    <glyph glyph-name="thorn" unicode="&#xfe;" 
d="M219 -184h-147v885h147v-174l-4 -76q30 27 65.5 42t73.5 15q46 0 83 -18t62.5 -51t39.5 -79.5t14 -103.5q0 -64 -18.5 -113.5t-48.5 -84t-68.5 -52.5t-78.5 -18q-37 0 -67 15.5t-56 38.5l3 -81v-145zM219 141q20 -18 43 -25.5t42 -7.5q20 0 37.5 8.5t31 26.5t21.5 45.5
t8 65.5q0 67 -22 100.5t-70 33.5q-46 0 -91 -46v-201z" />
    <glyph glyph-name="uni0237" unicode="&#x237;" 
d="M79 496h346v-466q0 -45 -10.5 -86t-37 -72t-71 -49.5t-111.5 -18.5q-46 0 -83.5 9.5t-69.5 24.5l43 105q30 -14 54.5 -19t46.5 -5q53 0 72.5 25.5t19.5 79.5v357h-199v115z" />
    <glyph glyph-name="uni0250" unicode="&#x250;" 
d="M546 359q0 -42 -18 -73.5t-57.5 -54t-101.5 -36t-150 -18.5q4 -34 29.5 -53t76.5 -19q36 0 72.5 13t78.5 34l52 -97q-51 -29 -109.5 -48t-122.5 -19q-104 0 -164 55t-60 169v284h120l11 -56h4q38 29 83 48.5t93 19.5q37 0 67.5 -11.5t51.5 -32t32.5 -47.5t11.5 -58z
M405 347q0 24 -18.5 35.5t-50.5 11.5q-33 0 -62 -13.5t-55 -33.5v-82q55 3 91 10t57 17.5t29.5 24.5t8.5 30z" />
    <glyph glyph-name="uni0251" unicode="&#x251;" 
d="M198 250q0 -74 25 -108t71 -34q25 0 46 10.5t41 35.5v201q-20 18 -40.5 25.5t-42.5 7.5q-41 0 -70.5 -34t-29.5 -104zM47 248q0 61 18 109t47.5 81.5t68.5 51.5t81 18q38 0 71.5 -15t63.5 -48h4l12 51h115v-496h-120l-11 51h-3q-27 -27 -64.5 -45t-73.5 -18
q-47 0 -85.5 18t-66 51.5t-42.5 81.5t-15 109z" />
    <glyph glyph-name="uni0252" unicode="&#x252;" 
d="M402 248q0 140 -94 140q-26 0 -47.5 -10.5t-41.5 -35.5v-201q20 -18 42 -25.5t42 -7.5q41 0 70 34t29 106zM553 258q0 -65 -18 -115t-48 -84.5t-69 -52.5t-81 -18q-34 0 -69 17t-65 49h-4l-12 -54h-115v496h120l11 -51h3q27 27 66 45t82 18q46 0 83 -18t62.5 -50.5
t39.5 -78.5t14 -103z" />
    <glyph glyph-name="uni0254" unicode="&#x254;" 
d="M533 248q0 -62 -22 -110.5t-59.5 -81.5t-89 -50.5t-109.5 -17.5q-53 0 -105.5 17.5t-95.5 55.5l60 93q26 -19 56.5 -33t67.5 -14q65 0 105.5 38t40.5 103t-36.5 103t-96.5 38q-32 0 -61 -9.5t-60 -29.5l-68 91q32 29 84 48t115 19q57 0 106.5 -17.5t87 -50.5t59 -81.5
t21.5 -110.5z" />
    <glyph glyph-name="uni0258" unicode="&#x258;" 
d="M545 248q0 -62 -21.5 -110t-58.5 -81.5t-87 -51t-108 -17.5q-50 0 -102 15.5t-94 42.5l48 88q33 -17 63.5 -25.5t64.5 -8.5q55 0 94 24.5t50 80.5h-334q-2 9 -4 27t-2 38q0 51 16 94.5t47 75.5t76.5 50t104.5 18q48 0 93 -18t79 -51.5t54.5 -81.5t20.5 -109zM396 302
q-9 48 -36.5 71t-69.5 23q-50 0 -76.5 -26t-26.5 -68h209z" />
    <glyph glyph-name="uni0259" unicode="&#x259;" 
d="M55 228q0 20 2 38t4 27h335q-10 54 -42.5 78.5t-86.5 24.5q-34 0 -67 -9t-64 -26l-49 92q43 27 94.5 41t101.5 14q59 0 107.5 -18t83 -51.5t53.5 -81.5t19 -109q0 -60 -20.5 -108.5t-55.5 -82t-81.5 -51.5t-97.5 -18q-58 0 -102 18t-74 50.5t-45 76.5t-15 95zM189 196
q0 -43 24.5 -69.5t74.5 -26.5q43 0 72.5 22.5t36.5 73.5h-208z" />
    <glyph glyph-name="uni0261" unicode="&#x261;" 
d="M127 -44q35 -20 73.5 -28.5t69.5 -8.5q55 0 83.5 23.5t32.5 58.5l3 64q-25 -24 -61.5 -38t-71.5 -14q-47 0 -85.5 18t-66 50.5t-42.5 77t-15 98.5q0 57 17.5 103.5t47 79t68.5 50.5t82 18q78 0 135 -63h4l12 51h115v-480q0 -101 -65 -156.5t-193 -55.5q-42 0 -95 12
t-97 40zM294 131q24 0 45.5 11t41.5 37v176q-20 18 -41 25.5t-44 7.5q-19 0 -37 -8.5t-32 -25t-22.5 -40.5t-8.5 -55q0 -62 27 -95t71 -33z" />
    <glyph glyph-name="uni0265" unicode="&#x265;" 
d="M528 -184h-147v151l8 95q-29 -29 -70.5 -51.5t-97.5 -22.5q-84 0 -122.5 54t-38.5 148v306h147v-287q0 -50 16 -73t57 -23q30 0 52.5 13t48.5 39v331h147v-680z" />
    <glyph glyph-name="uni026F" unicode="&#x26f;" 
d="M569 0h-110l-11 62h-4q-14 -31 -38.5 -52.5t-68.5 -21.5q-32 0 -54.5 20.5t-31.5 60.5q-14 -33 -40.5 -57t-68.5 -24q-52 0 -81 42.5t-29 117.5v348h138v-337q0 -46 28 -46q26 0 46 48v335h113v-337q0 -46 29 -46q14 0 24 12t21 36v335h138v-496z" />
    <glyph glyph-name="uni0279" unicode="&#x279;" 
d="M484 0h-120l-12 108h-3q-37 -60 -89 -90t-112 -30q-33 0 -53.5 5t-42.5 15l30 124q23 -8 41.5 -11.5t46.5 -3.5q46 0 90.5 27t76.5 94v258h147v-496z" />
    <glyph glyph-name="uni0287" unicode="&#x287;" 
d="M426 115h125v-115h-132l-19 -132h-121v132h-210v115h210v174q0 57 -25 80.5t-79 23.5q-29 0 -53 -5t-46 -13l-26 106q33 10 73.5 18.5t88.5 8.5q59 0 100 -15.5t66.5 -44t36.5 -69t11 -89.5v-175z" />
    <glyph glyph-name="uni028C" unicode="&#x28c;" 
d="M569 0h-148l-78 234l-23 76l-22 77h-4l-21.5 -77t-22.5 -76l-78 -234h-141l182 496h169z" />
    <glyph glyph-name="uni028D" unicode="&#x28d;" 
d="M596 0h-144l-30 230q-5 37 -8.5 73t-8.5 74h-3l-10 -75t-13 -72l-31 -164h-103l-33 164q-7 37 -13 73t-11 74h-4q-5 -38 -8 -74t-8 -73l-30 -230h-134l77 496h170l28 -165q5 -35 9.5 -70.5l9.5 -75.5h4l6.5 61t11.5 85l27 165h167z" />
    <glyph glyph-name="uni028E" unicode="&#x28e;" 
d="M508 591q-20 6 -37 6q-41 0 -64 -20t-35 -49l-18 -45l215 -483h-146l-83 213q-14 35 -26 72.5l-24 76.5h-4q-10 -37 -22 -74.5l-23 -74.5l-73 -213h-139l204 521q18 46 38.5 82t47 60.5t61 37t80.5 12.5q22 0 40 -2.5t35 -7.5l-27 -112v0z" />
    <glyph glyph-name="uni029E" unicode="&#x29e;" 
d="M524 -184h-147v381h-4l-182 -197h-161l188 204l-203 292h159l129 -195l74 72v123h147v-680z" />
    <glyph glyph-name="fi" unicode="&#xfb01;" 
d="M73 522q0 39 9.5 74t31.5 61t57 41t85 15q31 0 56.5 -6t42.5 -12l-27 -108q-12 5 -25.5 7.5t-25.5 2.5q-27 0 -42 -16.5t-15 -54.5v-30h90v-115h-90v-381h-147v381h-66v109l66 5v27zM407 496h147v-496h-147v496zM479 753q45 0 73.5 -25.5t28.5 -66.5t-28.5 -66.5
t-73.5 -25.5q-44 0 -72.5 25.5t-28.5 66.5t28.5 66.5t72.5 25.5z" />
    <glyph glyph-name="fl" unicode="&#xfb02;" 
d="M77 522q0 39 9.5 74t31.5 61t57 41t85 15q31 0 56.5 -6t42.5 -12l-27 -108q-12 5 -25.5 7.5t-25.5 2.5q-27 0 -42 -16.5t-15 -54.5v-30h90v-115h-90v-381h-147v381h-66v109l66 5v27zM602 0q-12 -5 -30 -8.5t-44 -3.5q-38 0 -64 12t-41.5 33.5t-22.5 52t-7 68.5v547h147
v-553q0 -23 9 -32t18 -9h7.5t10.5 2z" />
    <glyph glyph-name="a.a" 
d="M198 250q0 -74 25 -108t71 -34q25 0 46 10.5t41 35.5v201q-20 18 -40.5 25.5t-42.5 7.5q-41 0 -70.5 -34t-29.5 -104zM47 248q0 61 18 109t47.5 81.5t68.5 51.5t81 18q38 0 71.5 -15t63.5 -48h4l12 51h115v-496h-120l-11 51h-3q-27 -27 -64.5 -45t-73.5 -18
q-47 0 -85.5 18t-66 51.5t-42.5 81.5t-15 109z" />
    <glyph glyph-name="agrave.a" 
d="M198 250q0 -74 25 -108t71 -34q25 0 46 10.5t41 35.5v201q-20 18 -40.5 25.5t-42.5 7.5q-41 0 -70.5 -34t-29.5 -104zM47 248q0 61 18 109t47.5 81.5t68.5 51.5t81 18q38 0 71.5 -15t63.5 -48h4l12 51h115v-496h-120l-11 51h-3q-27 -27 -64.5 -45t-73.5 -18
q-47 0 -85.5 18t-66 51.5t-42.5 81.5t-15 109zM157 741h150l89 -167h-107z" />
    <glyph glyph-name="aacute.a" 
d="M198 250q0 -74 25 -108t71 -34q25 0 46 10.5t41 35.5v201q-20 18 -40.5 25.5t-42.5 7.5q-41 0 -70.5 -34t-29.5 -104zM47 248q0 61 18 109t47.5 81.5t68.5 51.5t81 18q38 0 71.5 -15t63.5 -48h4l12 51h115v-496h-120l-11 51h-3q-27 -27 -64.5 -45t-73.5 -18
q-47 0 -85.5 18t-66 51.5t-42.5 81.5t-15 109zM339 574h-107l89 167h150z" />
    <glyph glyph-name="acircumflex.a" 
d="M198 250q0 -74 25 -108t71 -34q25 0 46 10.5t41 35.5v201q-20 18 -40.5 25.5t-42.5 7.5q-41 0 -70.5 -34t-29.5 -104zM47 248q0 61 18 109t47.5 81.5t68.5 51.5t81 18q38 0 71.5 -15t63.5 -48h4l12 51h115v-496h-120l-11 51h-3q-27 -27 -64.5 -45t-73.5 -18
q-47 0 -85.5 18t-66 51.5t-42.5 81.5t-15 109zM252 741h124l100 -167h-107l-53 95h-4l-53 -95h-107z" />
    <glyph glyph-name="atilde.a" 
d="M198 250q0 -74 25 -108t71 -34q25 0 46 10.5t41 35.5v201q-20 18 -40.5 25.5t-42.5 7.5q-41 0 -70.5 -34t-29.5 -104zM47 248q0 61 18 109t47.5 81.5t68.5 51.5t81 18q38 0 71.5 -15t63.5 -48h4l12 51h115v-496h-120l-11 51h-3q-27 -27 -64.5 -45t-73.5 -18
q-47 0 -85.5 18t-66 51.5t-42.5 81.5t-15 109zM143 575q9 73 40 108t77 35q18 0 33.5 -8t28 -18t23.5 -18t22 -8q16 0 26 11.5t17 40.5h75q-9 -72 -40 -107.5t-77 -35.5q-19 0 -34 8.5t-28 18l-24 18t-21 8.5q-16 0 -26 -11.5t-17 -41.5h-75v0z" />
    <glyph glyph-name="adieresis.a" 
d="M198 250q0 -74 25 -108t71 -34q25 0 46 10.5t41 35.5v201q-20 18 -40.5 25.5t-42.5 7.5q-41 0 -70.5 -34t-29.5 -104zM47 248q0 61 18 109t47.5 81.5t68.5 51.5t81 18q38 0 71.5 -15t63.5 -48h4l12 51h115v-496h-120l-11 51h-3q-27 -27 -64.5 -45t-73.5 -18
q-47 0 -85.5 18t-66 51.5t-42.5 81.5t-15 109zM205 571q-35 0 -57 22.5t-22 56.5q0 33 22 55.5t57 22.5t56.5 -22.5t21.5 -55.5q0 -34 -21.5 -56.5t-56.5 -22.5zM423 571q-35 0 -56.5 22.5t-21.5 56.5q0 33 21.5 55.5t56.5 22.5t57 -22.5t22 -55.5q0 -34 -22 -56.5
t-57 -22.5z" />
    <glyph glyph-name="amacron.a" 
d="M198 250q0 -74 25 -108t71 -34q25 0 46 10.5t41 35.5v201q-20 18 -40.5 25.5t-42.5 7.5q-41 0 -70.5 -34t-29.5 -104zM47 248q0 61 18 109t47.5 81.5t68.5 51.5t81 18q38 0 71.5 -15t63.5 -48h4l12 51h115v-496h-120l-11 51h-3q-27 -27 -64.5 -45t-73.5 -18
q-47 0 -85.5 18t-66 51.5t-42.5 81.5t-15 109zM176 685h276v-93h-276v93z" />
    <glyph glyph-name="abreve.a" 
d="M198 250q0 -74 25 -108t71 -34q25 0 46 10.5t41 35.5v201q-20 18 -40.5 25.5t-42.5 7.5q-41 0 -70.5 -34t-29.5 -104zM47 248q0 61 18 109t47.5 81.5t68.5 51.5t81 18q38 0 71.5 -15t63.5 -48h4l12 51h115v-496h-120l-11 51h-3q-27 -27 -64.5 -45t-73.5 -18
q-47 0 -85.5 18t-66 51.5t-42.5 81.5t-15 109zM314 574q-37 0 -64.5 13t-45.5 34.5t-27 50t-10 58.5h82q4 -32 19.5 -53.5t45.5 -21.5t45.5 21.5t19.5 53.5h82q-1 -30 -10 -58.5t-27 -50t-45.5 -34.5t-64.5 -13z" />
    <glyph glyph-name="aring.a" 
d="M198 250q0 -74 25 -108t71 -34q25 0 46 10.5t41 35.5v201q-20 18 -40.5 25.5t-42.5 7.5q-41 0 -70.5 -34t-29.5 -104zM47 248q0 61 18 109t47.5 81.5t68.5 51.5t81 18q38 0 71.5 -15t63.5 -48h4l12 51h115v-496h-120l-11 51h-3q-27 -27 -64.5 -45t-73.5 -18
q-47 0 -85.5 18t-66 51.5t-42.5 81.5t-15 109zM314 548q-51 0 -82 27.5t-31 74.5t31 74.5t82 27.5t82 -27.5t31 -74.5t-31 -74.5t-82 -27.5zM314 603q17 0 29 13t12 34t-12 34t-29 13t-29 -13t-12 -34t12 -34t29 -13z" />
    <glyph glyph-name="uni01CE.a" 
d="M198 250q0 -74 25 -108t71 -34q25 0 46 10.5t41 35.5v201q-20 18 -40.5 25.5t-42.5 7.5q-41 0 -70.5 -34t-29.5 -104zM47 248q0 61 18 109t47.5 81.5t68.5 51.5t81 18q38 0 71.5 -15t63.5 -48h4l12 51h115v-496h-120l-11 51h-3q-27 -27 -64.5 -45t-73.5 -18
q-47 0 -85.5 18t-66 51.5t-42.5 81.5t-15 109zM152 741h107l53 -96h4l53 96h107l-100 -167h-124z" />
    <glyph glyph-name="uni1EA1.a" 
d="M198 250q0 -74 25 -108t71 -34q25 0 46 10.5t41 35.5v201q-20 18 -40.5 25.5t-42.5 7.5q-41 0 -70.5 -34t-29.5 -104zM47 248q0 61 18 109t47.5 81.5t68.5 51.5t81 18q38 0 71.5 -15t63.5 -48h4l12 51h115v-496h-120l-11 51h-3q-27 -27 -64.5 -45t-73.5 -18
q-47 0 -85.5 18t-66 51.5t-42.5 81.5t-15 109zM316 -253q-43 0 -70.5 24t-27.5 65t27.5 66.5t70.5 25.5t70.5 -25.5t27.5 -66.5t-27.5 -65t-70.5 -24z" />
    <glyph glyph-name="uni1EA3.a" 
d="M198 250q0 -74 25 -108t71 -34q25 0 46 10.5t41 35.5v201q-20 18 -40.5 25.5t-42.5 7.5q-41 0 -70.5 -34t-29.5 -104zM47 248q0 61 18 109t47.5 81.5t68.5 51.5t81 18q38 0 71.5 -15t63.5 -48h4l12 51h115v-496h-120l-11 51h-3q-27 -27 -64.5 -45t-73.5 -18
q-47 0 -85.5 18t-66 51.5t-42.5 81.5t-15 109zM268 615q18 3 31 9.5t13 20.5t-18 22.5t-61 10.5l17 74q92 -3 130 -27.5t38 -64.5q0 -26 -11 -44.5t-30 -31t-44.5 -19t-53.5 -8.5z" />
    <glyph glyph-name="uni1EA5.a" 
d="M198 250q0 -74 25 -108t71 -34q25 0 46 10.5t41 35.5v201q-20 18 -40.5 25.5t-42.5 7.5q-41 0 -70.5 -34t-29.5 -104zM47 248q0 61 18 109t47.5 81.5t68.5 51.5t81 18q38 0 71.5 -15t63.5 -48h4l12 51h115v-496h-120l-11 51h-3q-27 -27 -64.5 -45t-73.5 -18
q-47 0 -85.5 18t-66 51.5t-42.5 81.5t-15 109zM256 702h116l81 -128h-90l-47 65h-4l-47 -65h-90zM489 764h109l-95 -118h-82z" />
    <glyph glyph-name="uni1EA7.a" 
d="M198 250q0 -74 25 -108t71 -34q25 0 46 10.5t41 35.5v201q-20 18 -40.5 25.5t-42.5 7.5q-41 0 -70.5 -34t-29.5 -104zM47 248q0 61 18 109t47.5 81.5t68.5 51.5t81 18q38 0 71.5 -15t63.5 -48h4l12 51h115v-496h-120l-11 51h-3q-27 -27 -64.5 -45t-73.5 -18
q-47 0 -85.5 18t-66 51.5t-42.5 81.5t-15 109zM256 702h116l81 -128h-90l-47 65h-4l-47 -65h-90zM563 646h-82l-95 118h109z" />
    <glyph glyph-name="uni1EA9.a" 
d="M198 250q0 -74 25 -108t71 -34q25 0 46 10.5t41 35.5v201q-20 18 -40.5 25.5t-42.5 7.5q-41 0 -70.5 -34t-29.5 -104zM47 248q0 61 18 109t47.5 81.5t68.5 51.5t81 18q38 0 71.5 -15t63.5 -48h4l12 51h115v-496h-120l-11 51h-3q-27 -27 -64.5 -45t-73.5 -18
q-47 0 -85.5 18t-66 51.5t-42.5 81.5t-15 109zM256 702h116l81 -128h-90l-47 65h-4l-47 -65h-90zM442 678q14 3 22 9t8 19q0 14 -13.5 22.5t-51.5 10.5l14 62q82 -2 114.5 -23t32.5 -56q0 -25 -9.5 -41.5t-25 -27t-36.5 -16.5t-45 -9z" />
    <glyph glyph-name="uni1EAB.a" 
d="M198 250q0 -74 25 -108t71 -34q25 0 46 10.5t41 35.5v201q-20 18 -40.5 25.5t-42.5 7.5q-41 0 -70.5 -34t-29.5 -104zM47 248q0 61 18 109t47.5 81.5t68.5 51.5t81 18q38 0 71.5 -15t63.5 -48h4l12 51h115v-496h-120l-11 51h-3q-27 -27 -64.5 -45t-73.5 -18
q-47 0 -85.5 18t-66 51.5t-42.5 81.5t-15 109zM247 684h134l80 -111h-95l-50 59h-4l-50 -59h-95zM168 720q7 60 32.5 87t58.5 27q20 0 34.5 -6t26 -13l21 -13t20.5 -6q28 0 35 38h64q-7 -59 -32.5 -86.5t-58.5 -27.5q-20 0 -34.5 6t-26 13l-21.5 13t-20 6q-28 0 -35 -38h-64
z" />
    <glyph glyph-name="uni1EAD.a" 
d="M198 250q0 -74 25 -108t71 -34q25 0 46 10.5t41 35.5v201q-20 18 -40.5 25.5t-42.5 7.5q-41 0 -70.5 -34t-29.5 -104zM47 248q0 61 18 109t47.5 81.5t68.5 51.5t81 18q38 0 71.5 -15t63.5 -48h4l12 51h115v-496h-120l-11 51h-3q-27 -27 -64.5 -45t-73.5 -18
q-47 0 -85.5 18t-66 51.5t-42.5 81.5t-15 109zM252 741h124l100 -167h-107l-53 95h-4l-53 -95h-107zM315 -253q-43 0 -70.5 24t-27.5 65t27.5 66.5t70.5 25.5t70.5 -25.5t27.5 -66.5t-27.5 -65t-70.5 -24z" />
    <glyph glyph-name="uni1EAF.a" 
d="M198 250q0 -74 25 -108t71 -34q25 0 46 10.5t41 35.5v201q-20 18 -40.5 25.5t-42.5 7.5q-41 0 -70.5 -34t-29.5 -104zM47 248q0 61 18 109t47.5 81.5t68.5 51.5t81 18q38 0 71.5 -15t63.5 -48h4l12 51h115v-496h-120l-11 51h-3q-27 -27 -64.5 -45t-73.5 -18
q-47 0 -85.5 18t-66 51.5t-42.5 81.5t-15 109zM325 810h106l-89 -118h-74zM314 574q-35 0 -60.5 11.5t-42.5 31t-26 44.5t-10 52h65q5 -28 22.5 -47.5t51.5 -19.5t51.5 19.5t22.5 47.5h65q-1 -27 -10 -52t-26 -44.5t-42.5 -31t-60.5 -11.5z" />
    <glyph glyph-name="uni1EB1.a" 
d="M198 250q0 -74 25 -108t71 -34q25 0 46 10.5t41 35.5v201q-20 18 -40.5 25.5t-42.5 7.5q-41 0 -70.5 -34t-29.5 -104zM47 248q0 61 18 109t47.5 81.5t68.5 51.5t81 18q38 0 71.5 -15t63.5 -48h4l12 51h115v-496h-120l-11 51h-3q-27 -27 -64.5 -45t-73.5 -18
q-47 0 -85.5 18t-66 51.5t-42.5 81.5t-15 109zM360 692h-74l-89 118h106zM314 574q-35 0 -60.5 11.5t-42.5 31t-26 44.5t-10 52h65q5 -28 22.5 -47.5t51.5 -19.5t51.5 19.5t22.5 47.5h65q-1 -27 -10 -52t-26 -44.5t-42.5 -31t-60.5 -11.5z" />
    <glyph glyph-name="uni1EB3.a" 
d="M198 250q0 -74 25 -108t71 -34q25 0 46 10.5t41 35.5v201q-20 18 -40.5 25.5t-42.5 7.5q-41 0 -70.5 -34t-29.5 -104zM47 248q0 61 18 109t47.5 81.5t68.5 51.5t81 18q38 0 71.5 -15t63.5 -48h4l12 51h115v-496h-120l-11 51h-3q-27 -27 -64.5 -45t-73.5 -18
q-47 0 -85.5 18t-66 51.5t-42.5 81.5t-15 109zM314 574q-35 0 -60.5 11.5t-42.5 31t-26 44.5t-10 52h65q5 -28 22.5 -47.5t51.5 -19.5t51.5 19.5t22.5 47.5h65q-1 -27 -10 -52t-26 -44.5t-42.5 -31t-60.5 -11.5zM270 748q14 3 22 8.5t8 19.5t-13.5 22t-51.5 11l13 62
q82 -3 115 -24t33 -56q0 -24 -9.5 -40.5t-25 -27t-37 -16.5t-45.5 -9z" />
    <glyph glyph-name="uni1EB5.a" 
d="M198 250q0 -74 25 -108t71 -34q25 0 46 10.5t41 35.5v201q-20 18 -40.5 25.5t-42.5 7.5q-41 0 -70.5 -34t-29.5 -104zM47 248q0 61 18 109t47.5 81.5t68.5 51.5t81 18q38 0 71.5 -15t63.5 -48h4l12 51h115v-496h-120l-11 51h-3q-27 -27 -64.5 -45t-73.5 -18
q-47 0 -85.5 18t-66 51.5t-42.5 81.5t-15 109zM314 574q-35 0 -60.5 9.5t-42.5 26t-26 38t-10 45.5h69q5 -20 20.5 -35t49.5 -15t49.5 15t20.5 35h69q-1 -24 -10 -45.5t-26 -38t-42.5 -26t-60.5 -9.5zM168 720q7 60 32.5 87t58.5 27q20 0 34.5 -6t26 -13l21 -13t20.5 -6
q28 0 35 38h64q-7 -59 -32.5 -86.5t-58.5 -27.5q-20 0 -34.5 6t-26 13l-21.5 13t-20 6q-28 0 -35 -38h-64z" />
    <glyph glyph-name="uni1EB7.a" 
d="M198 250q0 -74 25 -108t71 -34q25 0 46 10.5t41 35.5v201q-20 18 -40.5 25.5t-42.5 7.5q-41 0 -70.5 -34t-29.5 -104zM47 248q0 61 18 109t47.5 81.5t68.5 51.5t81 18q38 0 71.5 -15t63.5 -48h4l12 51h115v-496h-120l-11 51h-3q-27 -27 -64.5 -45t-73.5 -18
q-47 0 -85.5 18t-66 51.5t-42.5 81.5t-15 109zM314 574q-37 0 -64.5 13t-45.5 34.5t-27 50t-10 58.5h82q4 -32 19.5 -53.5t45.5 -21.5t45.5 21.5t19.5 53.5h82q-1 -30 -10 -58.5t-27 -50t-45.5 -34.5t-64.5 -13zM315 -253q-43 0 -70.5 24t-27.5 65t27.5 66.5t70.5 25.5
t70.5 -25.5t27.5 -66.5t-27.5 -65t-70.5 -24z" />
    <glyph glyph-name="aogonek.a" 
d="M198 250q0 -74 25 -108t71 -34q25 0 46 10.5t41 35.5v201q-20 18 -40.5 25.5t-42.5 7.5q-41 0 -70.5 -34t-29.5 -104zM47 248q0 61 18 109t47.5 81.5t68.5 51.5t81 18q38 0 71.5 -15t63.5 -48h4l12 51h115v-496q-50 -15 -69 -38.5t-19 -46.5q0 -20 12.5 -29t29.5 -9
q10 0 19.5 3.5t16.5 8.5l30 -66q-19 -15 -48 -24t-53 -9q-45 0 -75.5 23t-30.5 68q0 22 7 40.5t17.5 33.5t22.5 25.5t22 17.5l-13 53h-3q-27 -27 -64.5 -45t-73.5 -18q-47 0 -85.5 18t-66 51.5t-42.5 81.5t-15 109z" />
    <glyph glyph-name="g.a" 
d="M127 -44q35 -20 73.5 -28.5t69.5 -8.5q55 0 83.5 23.5t32.5 58.5l3 64q-25 -24 -61.5 -38t-71.5 -14q-47 0 -85.5 18t-66 50.5t-42.5 77t-15 98.5q0 57 17.5 103.5t47 79t68.5 50.5t82 18q78 0 135 -63h4l12 51h115v-480q0 -101 -65 -156.5t-193 -55.5q-42 0 -95 12
t-97 40zM294 131q24 0 45.5 11t41.5 37v176q-20 18 -41 25.5t-44 7.5q-19 0 -37 -8.5t-32 -25t-22.5 -40.5t-8.5 -55q0 -62 27 -95t71 -33z" />
    <glyph glyph-name="gcircumflex.a" 
d="M127 -44q35 -20 73.5 -28.5t69.5 -8.5q55 0 83.5 23.5t32.5 58.5l3 64q-25 -24 -61.5 -38t-71.5 -14q-47 0 -85.5 18t-66 50.5t-42.5 77t-15 98.5q0 57 17.5 103.5t47 79t68.5 50.5t82 18q78 0 135 -63h4l12 51h115v-480q0 -101 -65 -156.5t-193 -55.5q-42 0 -95 12
t-97 40zM294 131q24 0 45.5 11t41.5 37v176q-20 18 -41 25.5t-44 7.5q-19 0 -37 -8.5t-32 -25t-22.5 -40.5t-8.5 -55q0 -62 27 -95t71 -33zM247 741h124l100 -167h-107l-53 95h-4l-53 -95h-107z" />
    <glyph glyph-name="gbreve.a" 
d="M127 -44q35 -20 73.5 -28.5t69.5 -8.5q55 0 83.5 23.5t32.5 58.5l3 64q-25 -24 -61.5 -38t-71.5 -14q-47 0 -85.5 18t-66 50.5t-42.5 77t-15 98.5q0 57 17.5 103.5t47 79t68.5 50.5t82 18q78 0 135 -63h4l12 51h115v-480q0 -101 -65 -156.5t-193 -55.5q-42 0 -95 12
t-97 40zM294 131q24 0 45.5 11t41.5 37v176q-20 18 -41 25.5t-44 7.5q-19 0 -37 -8.5t-32 -25t-22.5 -40.5t-8.5 -55q0 -62 27 -95t71 -33zM309 574q-37 0 -64.5 13t-45.5 34.5t-27 50t-10 58.5h82q4 -32 19.5 -53.5t45.5 -21.5t45.5 21.5t19.5 53.5h82q-1 -30 -10 -58.5
t-27 -50t-45.5 -34.5t-64.5 -13z" />
    <glyph glyph-name="gdotaccent.a" 
d="M127 -44q35 -20 73.5 -28.5t69.5 -8.5q55 0 83.5 23.5t32.5 58.5l3 64q-25 -24 -61.5 -38t-71.5 -14q-47 0 -85.5 18t-66 50.5t-42.5 77t-15 98.5q0 57 17.5 103.5t47 79t68.5 50.5t82 18q78 0 135 -63h4l12 51h115v-480q0 -101 -65 -156.5t-193 -55.5q-42 0 -95 12
t-97 40zM294 131q24 0 45.5 11t41.5 37v176q-20 18 -41 25.5t-44 7.5q-19 0 -37 -8.5t-32 -25t-22.5 -40.5t-8.5 -55q0 -62 27 -95t71 -33zM309 569q-43 0 -70.5 24t-27.5 65t27.5 66.5t70.5 25.5t70.5 -25.5t27.5 -66.5t-27.5 -65t-70.5 -24z" />
    <glyph glyph-name="uni0123.a" 
d="M127 -44q35 -20 73.5 -28.5t69.5 -8.5q55 0 83.5 23.5t32.5 58.5l3 64q-25 -24 -61.5 -38t-71.5 -14q-47 0 -85.5 18t-66 50.5t-42.5 77t-15 98.5q0 57 17.5 103.5t47 79t68.5 50.5t82 18q78 0 135 -63h4l12 51h115v-480q0 -101 -65 -156.5t-193 -55.5q-42 0 -95 12
t-97 40zM294 131q24 0 45.5 11t41.5 37v176q-20 18 -41 25.5t-44 7.5q-19 0 -37 -8.5t-32 -25t-22.5 -40.5t-8.5 -55q0 -62 27 -95t71 -33zM344 545q-67 6 -94 25.5t-27 57.5q0 25 14.5 44t39 31.5t56.5 19.5t68 9l11 -59q-36 -4 -59.5 -12.5t-23.5 -25.5q0 -26 43 -36
l-28 -54v0z" />
    <glyph glyph-name="gcaron.a" 
d="M127 -44q35 -20 73.5 -28.5t69.5 -8.5q55 0 83.5 23.5t32.5 58.5l3 64q-25 -24 -61.5 -38t-71.5 -14q-47 0 -85.5 18t-66 50.5t-42.5 77t-15 98.5q0 57 17.5 103.5t47 79t68.5 50.5t82 18q78 0 135 -63h4l12 51h115v-480q0 -101 -65 -156.5t-193 -55.5q-42 0 -95 12
t-97 40zM294 131q24 0 45.5 11t41.5 37v176q-20 18 -41 25.5t-44 7.5q-19 0 -37 -8.5t-32 -25t-22.5 -40.5t-8.5 -55q0 -62 27 -95t71 -33zM147 741h107l53 -96h4l53 96h107l-100 -167h-124z" />
    <glyph glyph-name="uni1E21.a" 
d="M127 -44q35 -20 73.5 -28.5t69.5 -8.5q55 0 83.5 23.5t32.5 58.5l3 64q-25 -24 -61.5 -38t-71.5 -14q-47 0 -85.5 18t-66 50.5t-42.5 77t-15 98.5q0 57 17.5 103.5t47 79t68.5 50.5t82 18q78 0 135 -63h4l12 51h115v-480q0 -101 -65 -156.5t-193 -55.5q-42 0 -95 12
t-97 40zM294 131q24 0 45.5 11t41.5 37v176q-20 18 -41 25.5t-44 7.5q-19 0 -37 -8.5t-32 -25t-22.5 -40.5t-8.5 -55q0 -62 27 -95t71 -33zM171 685h276v-93h-276v93z" />
    <glyph glyph-name="uni00670303.a" 
d="M127 -44q35 -20 73.5 -28.5t69.5 -8.5q55 0 83.5 23.5t32.5 58.5l3 64q-25 -24 -61.5 -38t-71.5 -14q-47 0 -85.5 18t-66 50.5t-42.5 77t-15 98.5q0 57 17.5 103.5t47 79t68.5 50.5t82 18q78 0 135 -63h4l12 51h115v-480q0 -101 -65 -156.5t-193 -55.5q-42 0 -95 12
t-97 40zM294 131q24 0 45.5 11t41.5 37v176q-20 18 -41 25.5t-44 7.5q-19 0 -37 -8.5t-32 -25t-22.5 -40.5t-8.5 -55q0 -62 27 -95t71 -33zM138 575q9 73 40 108t77 35q18 0 33.5 -8t28 -18t23.5 -18t22 -8q16 0 26 11.5t17 40.5h75q-9 -72 -40 -107.5t-77 -35.5
q-19 0 -34 8.5t-28 18l-24 18t-21 8.5q-16 0 -26 -11.5t-17 -41.5h-75v0z" />
    <glyph glyph-name="ampersand" unicode="&#x26;" 
d="M162 183q0 -37 24.5 -60t64.5 -23q32 0 64 23q-35 30 -66.5 63.5t-57.5 69.5q-14 -17 -21.5 -35t-7.5 -38zM207 494q0 -34 19 -75q28 20 46.5 43t18.5 54q0 23 -9 37t-32 14q-19 0 -31 -19.5t-12 -53.5zM586 368q-15 -60 -37 -114.5t-54 -105.5q51 -32 91 -41l-35 -119
q-68 16 -138 63q-37 -29 -81.5 -46t-99.5 -17q-51 0 -90 15t-65.5 40.5t-40 59t-13.5 71.5q0 32 8.5 58.5t23 48t33.5 39.5t40 33q-20 38 -31 73.5t-11 66.5q0 35 11 66t32 54.5t51 37t67 13.5q74 0 115.5 -40t41.5 -108q0 -31 -11 -56.5t-28.5 -47.5t-39.5 -41t-45 -37
q24 -31 54.5 -60.5t62.5 -55.5q18 32 32 69t23 81h134z" />
    <glyph glyph-name="zero" unicode="0" 
d="M300 -12q-55 0 -100 21.5t-77 63.5t-49.5 104t-17.5 143t17.5 142t49.5 102.5t77 62t100 20.5t100 -20.5t77 -62t49.5 -102.5t17.5 -142t-17.5 -143t-49.5 -104t-77 -63.5t-100 -21.5zM300 533q-24 0 -44.5 -10t-35.5 -34.5t-24 -65.5t-9 -103t9 -103.5t24 -67
t35.5 -36.5t44.5 -11t44.5 11t35.5 36.5t24 67t9 103.5t-9 103t-24 65.5t-35.5 34.5t-44.5 10zM300 246q-32 0 -53.5 20.5t-21.5 55.5t21.5 55.5t53.5 20.5t53.5 -20.5t21.5 -55.5t-21.5 -55.5t-53.5 -20.5z" />
    <glyph glyph-name="one" unicode="1" 
d="M537 119v-119h-455v119h164v367h-131v91q56 10 95.5 24t74.5 34h108v-516h144z" />
    <glyph glyph-name="two" unicode="2" 
d="M58 84l124 106.5t96 92.5t62 81t22 72q0 47 -27 71.5t-77 24.5q-38 0 -69.5 -19.5t-58.5 -45.5l-79 79q25 25 49.5 44t52 31.5t58 19t67.5 6.5q50 0 91 -14.5t70.5 -41t46 -63.5t16.5 -83q0 -40 -19 -81.5t-51.5 -83t-74.5 -83t-88 -81.5q27 3 58.5 5.5t56.5 2.5h151
v-124h-477v84z" />
    <glyph glyph-name="three" unicode="3" 
d="M110 171q32 -28 71.5 -46t83.5 -18q52 0 85.5 19.5t33.5 55.5q0 21 -9 38t-31 28.5t-59 18t-93 6.5v104q94 0 132.5 23.5t38.5 61.5q0 33 -25 51.5t-69 18.5q-38 0 -70 -15t-65 -41l-74 90q47 38 100.5 59.5t115.5 21.5q52 0 95 -11.5t74 -34t48 -54.5t17 -74
q0 -50 -32 -84.5t-89 -56.5v-4q60 -16 101 -54.5t41 -100.5q0 -44 -20.5 -78.5t-55 -58t-80.5 -36t-96 -12.5q-82 0 -141 24.5t-96 65.5z" />
    <glyph glyph-name="four" unicode="4" 
d="M341 264v107q0 30 1.5 69.5t3.5 69.5h-4q-16 -27 -34 -54l-35 -54l-96 -138h164zM558 152h-80v-152h-137v152h-306v101l265 382h178v-371h80v-112z" />
    <glyph glyph-name="five" unicode="5" 
d="M112 170q32 -26 68.5 -44.5t81.5 -18.5q54 0 88.5 25t34.5 74q0 48 -32.5 73t-83.5 25q-16 0 -28.5 -1.5t-24.5 -5.5t-25 -10t-29 -15l-65 42l17 321h389v-124h-262l-11 -119q22 8 41 11.5t43 3.5q44 0 83.5 -12t69.5 -36t47.5 -61t17.5 -88q0 -53 -20.5 -94t-55 -69.5
t-79.5 -43.5t-94 -15q-83 0 -140.5 25.5t-96.5 63.5z" />
    <glyph glyph-name="six" unicode="6" 
d="M314 98q19 0 36.5 6t31 18.5t21.5 32t8 46.5q0 49 -26 70.5t-68 21.5q-28 0 -58 -14t-59 -48q6 -38 17.5 -63.5t26.5 -41t33 -22t37 -6.5zM459 483q-20 18 -50 31.5t-62 13.5q-29 0 -55.5 -10.5t-47 -34t-33.5 -61.5t-15 -94q34 33 75.5 51t77.5 18q42 0 77.5 -12t62 -36
t41.5 -61t15 -87t-18.5 -89t-50 -67t-72.5 -42.5t-87 -14.5q-49 0 -95 18t-82 56t-58 97.5t-22 143.5q0 89 23 154t61.5 107t87.5 62.5t102 20.5q68 0 119 -22.5t83 -53.5z" />
    <glyph glyph-name="seven" unicode="7" 
d="M193 0q4 79 15.5 145.5t33 127t55.5 118t84 120.5h-319v124h477v-90q-60 -67 -97 -125.5t-58 -121t-30 -134t-13 -164.5h-148v0z" />
    <glyph glyph-name="eight" unicode="8" 
d="M188 179q0 -42 33 -65.5t82 -23.5q45 0 72.5 19.5t27.5 59.5q0 22 -11 37t-31.5 27.5t-48.5 23l-62 23.5q-27 -20 -44.5 -45t-17.5 -56zM343 370q48 43 48 93q0 37 -23 59.5t-67 22.5q-35 0 -59.5 -18t-24.5 -55q0 -39 35 -61t91 -41zM61 162q0 29 9.5 52.5t26 42.5
t38 34t46.5 27v4q-40 28 -66.5 63.5t-26.5 86.5q0 40 16 72.5t44.5 55.5t68.5 35t87 12q48 0 86.5 -12.5t65.5 -35t41.5 -55t14.5 -71.5q0 -45 -26.5 -80t-64.5 -59v-4q25 -12 47 -27.5t38 -35.5t25 -45.5t9 -57.5q0 -38 -16 -70t-46.5 -55.5t-75.5 -37t-103 -13.5
q-55 0 -99 12.5t-75 35.5t-47.5 55t-16.5 71z" />
    <glyph glyph-name="nine" unicode="9" 
d="M282 342q28 0 58 14t59 49q-6 37 -17.5 62.5t-27 41t-33.5 22t-37 6.5t-36.5 -6t-31 -18.5t-21.5 -32t-8 -46.5q0 -49 26 -70.5t69 -21.5zM140 152q20 -18 50 -31.5t62 -13.5q29 0 55.5 10.5t47 34t33.5 62t15 94.5q-35 -33 -76.5 -51.5t-76.5 -18.5q-42 0 -78 12
t-62.5 36t-41.5 61t-15 87q0 49 18.5 88.5t50 67.5t72.5 42.5t87 14.5q49 0 95.5 -18t82.5 -56t57.5 -97.5t21.5 -143.5q0 -89 -23 -154t-61 -107t-87.5 -62.5t-101.5 -20.5q-68 0 -119 23t-84 53z" />
    <glyph glyph-name="zero.onum" 
d="M300 -12q-55 0 -100 20t-77 59t-49.5 96t-17.5 130t17.5 128.5t49.5 93t77 56.5t100 19t100 -19t77 -56.5t49.5 -93t17.5 -128.5t-17.5 -130t-49.5 -96t-77 -59t-100 -20zM300 477q-24 0 -44.5 -9t-35.5 -30t-24 -56.5t-9 -88.5t9 -89.5t24 -59t35.5 -32.5t44.5 -10
t44.5 10t35.5 32.5t24 59t9 89.5t-9 88.5t-24 56.5t-35.5 30t-44.5 9zM300 219q-32 0 -53.5 20.5t-21.5 55.5q0 34 21.5 55t53.5 21t53.5 -21t21.5 -55q0 -35 -21.5 -55.5t-53.5 -20.5z" />
    <glyph glyph-name="one.onum" 
d="M537 119v-119h-455v119h164v310h-131v91q56 10 95.5 24t74.5 34h108v-459h144z" />
    <glyph glyph-name="two.onum" 
d="M58 84q70 45 126 86t95.5 77.5t61 69.5t21.5 61q0 48 -27 72.5t-77 24.5q-38 0 -69.5 -19.5t-58.5 -45.5l-79 80q25 25 49.5 43.5t52 31t58 19t67.5 6.5q50 0 91 -14.5t70.5 -41t46 -64.5t16.5 -84q0 -36 -16 -71t-43.5 -68.5t-65.5 -66t-82 -64.5q27 3 58.5 5.5
t56.5 2.5h125v-124h-477v84z" />
    <glyph glyph-name="three.onum" 
d="M110 93q32 -28 71.5 -46.5t83.5 -18.5q52 0 85.5 21.5t33.5 62.5q0 22 -9 39.5t-31 29.5t-59 18.5t-93 6.5v104q94 0 132.5 25t38.5 67q0 33 -25 53t-69 20q-38 0 -70 -15t-65 -41l-74 90q47 38 100.5 59.5t115.5 21.5q52 0 95 -12t74 -35t48 -55.5t17 -74.5
q0 -52 -32 -88.5t-89 -59.5v-4q30 -8 56 -22t45 -33.5t30 -45t11 -57.5q0 -46 -20.5 -82t-55 -60.5t-80.5 -37.5t-96 -13q-82 0 -141 24.5t-96 65.5z" />
    <glyph glyph-name="four.onum" 
d="M341 195v119q0 31 1.5 70t3.5 70h-4q-16 -28 -33.5 -55.5l-34.5 -54.5l-97 -149h164zM558 83h-80v-161h-137v161h-306v101l265 394h178v-383h80v-112z" />
    <glyph glyph-name="five.onum" 
d="M112 92q32 -26 68.5 -45t81.5 -19q54 0 88.5 27t34.5 81q0 53 -32.5 78t-83.5 25q-16 0 -28.5 -1.5t-24.5 -5.5t-25 -10t-29 -15l-65 42l17 329h389v-123h-262l-11 -128q22 9 41 12t43 3q44 0 83.5 -11.5t69.5 -36.5t47.5 -63t17.5 -91q0 -55 -20.5 -97.5t-55 -72
t-79.5 -45t-94 -15.5q-83 0 -140.5 25.5t-96.5 63.5z" />
    <glyph glyph-name="six.onum" 
d="M314 98q19 0 36.5 6t31 18.5t21.5 32t8 46.5q0 49 -26 70.5t-68 21.5q-28 0 -58 -14t-59 -48q6 -38 17.5 -63.5t26.5 -41t33 -22t37 -6.5zM459 483q-20 18 -50 31.5t-62 13.5q-29 0 -55.5 -10.5t-47 -34t-33.5 -61.5t-15 -94q34 33 75.5 51t77.5 18q42 0 77.5 -12t62 -36
t41.5 -61t15 -87t-18.5 -89t-50 -67t-72.5 -42.5t-87 -14.5q-49 0 -95 18t-82 56t-58 97.5t-22 143.5q0 89 23 154t61.5 107t87.5 62.5t102 20.5q68 0 119 -22.5t83 -53.5z" />
    <glyph glyph-name="seven.onum" 
d="M193 -78q4 82 15.5 151t33 132.5t55.5 124t84 125.5h-319v123h477v-90q-60 -68 -97 -129t-58 -126t-30 -140t-13 -171h-148v0z" />
    <glyph glyph-name="eight.onum" 
d="M188 179q0 -42 33 -65.5t82 -23.5q45 0 72.5 19.5t27.5 59.5q0 22 -11 37t-31.5 27.5t-48.5 23l-62 23.5q-27 -20 -44.5 -45t-17.5 -56zM343 370q48 43 48 93q0 37 -23 59.5t-67 22.5q-35 0 -59.5 -18t-24.5 -55q0 -39 35 -61t91 -41zM61 162q0 29 9.5 52.5t26 42.5
t38 34t46.5 27v4q-40 28 -66.5 63.5t-26.5 86.5q0 40 16 72.5t44.5 55.5t68.5 35t87 12q48 0 86.5 -12.5t65.5 -35t41.5 -55t14.5 -71.5q0 -45 -26.5 -80t-64.5 -59v-4q25 -12 47 -27.5t38 -35.5t25 -45.5t9 -57.5q0 -38 -16 -70t-46.5 -55.5t-75.5 -37t-103 -13.5
q-55 0 -99 12.5t-75 35.5t-47.5 55t-16.5 71z" />
    <glyph glyph-name="nine.onum" 
d="M282 265q28 0 59 15t60 52q-5 42 -16.5 70.5t-27 46t-34.5 24.5t-39 7q-19 0 -36.5 -6t-31 -19t-21.5 -34t-8 -50q0 -54 26 -80t69 -26zM140 74q20 -18 50 -32t62 -14q28 0 53.5 10t45.5 33.5t34 62.5t18 97q-35 -34 -76.5 -52t-76.5 -18q-42 0 -78 13t-62.5 39
t-41.5 65.5t-15 92.5q0 51 18.5 92t50 69t72.5 43t87 15q49 0 95.5 -18t82.5 -56t57.5 -97.5t21.5 -143.5q0 -95 -23 -164t-61 -113.5t-87.5 -66t-101.5 -21.5q-68 0 -119 22.5t-84 53.5z" />
    <glyph glyph-name="period" unicode="." 
d="M184 105q0 25 8.5 46.5t23.5 37.5t36.5 25t47.5 9t47.5 -9t36.5 -25t23.5 -37.5t8.5 -46.5q0 -50 -32 -83.5t-84 -33.5t-84 33.5t-32 83.5z" />
    <glyph glyph-name="comma" unicode="," 
d="M182 -131q130 45 130 142q-4 -1 -11 -1q-21 0 -40.5 6.5t-34.5 19.5t-24 32t-9 44q0 47 32.5 75t79.5 28q62 0 93 -45.5t31 -126.5q0 -96 -53 -162t-157 -98z" />
    <glyph glyph-name="colon" unicode=":" 
d="M184 428q0 25 8.5 46.5t23.5 37.5t36.5 25t47.5 9t47.5 -9t36.5 -25t23.5 -37.5t8.5 -46.5q0 -50 -32 -83.5t-84 -33.5t-84 33.5t-32 83.5zM184 105q0 25 8.5 46.5t23.5 37.5t36.5 25t47.5 9t47.5 -9t36.5 -25t23.5 -37.5t8.5 -46.5q0 -50 -32 -83.5t-84 -33.5t-84 33.5
t-32 83.5z" />
    <glyph glyph-name="semicolon" unicode=";" 
d="M184 428q0 25 8.5 46.5t23.5 37.5t36.5 25t47.5 9t47.5 -9t36.5 -25t23.5 -37.5t8.5 -46.5q0 -50 -32 -83.5t-84 -33.5t-84 33.5t-32 83.5zM182 -131q130 45 130 142q-4 -1 -11 -1q-21 0 -40.5 6.5t-34.5 19.5t-24 32t-9 44q0 47 32.5 75t79.5 28q62 0 93 -45.5
t31 -126.5q0 -96 -53 -162t-157 -98z" />
    <glyph glyph-name="ellipsis" unicode="&#x2026;" 
d="M-1 84q0 41 25 68.5t67 27.5t67 -27.5t25 -68.5t-25 -68.5t-67 -27.5t-67 27.5t-25 68.5zM208 84q0 41 25 68.5t67 27.5t67 -27.5t25 -68.5t-25 -68.5t-67 -27.5t-67 27.5t-25 68.5zM417 84q0 41 25 68.5t67 27.5t67 -27.5t25 -68.5t-25 -68.5t-67 -27.5t-67 27.5
t-25 68.5z" />
    <glyph glyph-name="exclam" unicode="!" 
d="M232 537l-5 133h146l-5 -133l-20 -282h-96zM200 90q0 45 28.5 72.5t71.5 27.5t71.5 -27.5t28.5 -72.5t-28.5 -73.5t-71.5 -28.5t-71.5 28.5t-28.5 73.5z" />
    <glyph glyph-name="exclamdown" unicode="&#xa1;" 
d="M368 -41l5 -133h-146l5 133l20 282h96zM400 406q0 -45 -28.5 -72.5t-71.5 -27.5t-71.5 27.5t-28.5 72.5t28.5 73.5t71.5 28.5t71.5 -28.5t28.5 -73.5z" />
    <glyph glyph-name="question" unicode="?" 
d="M218 255q-6 33 2.5 59.5t23.5 47.5t34.5 38l36.5 33t29 32t12 35q0 32 -21 47.5t-53 15.5q-31 0 -55 -13t-47 -33l-82 75q36 40 85 65t109 25q43 0 80.5 -10t65 -30.5t43.5 -51t16 -71.5q0 -33 -12 -57t-30 -44t-38 -37t-37 -35.5t-27 -40t-7 -50.5h-128zM186 90
q0 45 28.5 72.5t71.5 27.5t71.5 -27.5t28.5 -72.5t-28.5 -73.5t-71.5 -28.5t-71.5 28.5t-28.5 73.5z" />
    <glyph glyph-name="questiondown" unicode="&#xbf;" 
d="M383 241q5 -34 -3 -60t-23.5 -47t-35 -38l-36.5 -33t-29 -32.5t-12 -34.5q0 -31 21 -47t53 -16t56 13t47 33l81 -74q-36 -41 -85 -66t-109 -25q-43 0 -80.5 10t-65 30t-43.5 51t-16 72q0 33 12 57t30 44t38 37t37 35.5t27 40t7 50.5h129zM414 406q0 -45 -28 -72.5
t-72 -27.5q-43 0 -71 27.5t-28 72.5t28 73.5t71 28.5q44 0 72 -28.5t28 -73.5z" />
    <glyph glyph-name="quotesingle" unicode="'" 
d="M220 540l-5 145h170l-5 -145l-35 -237h-90z" />
    <glyph glyph-name="quotedbl" unicode="&#x22;" 
d="M88 540l-5 145h170l-5 -145l-35 -237h-90zM353 540l-5 145h170l-5 -145l-35 -237h-90z" />
    <glyph glyph-name="quoteleft" unicode="&#x2018;" 
d="M397 619q-53 -24 -80.5 -58t-31.5 -82q10 3 21 3q40 0 65.5 -24.5t25.5 -66.5q0 -46 -27 -73.5t-69 -27.5q-56 0 -86.5 42t-30.5 118q0 82 43.5 144.5t131.5 102.5z" />
    <glyph glyph-name="quoteright" unicode="&#x2019;" 
d="M202 368q105 47 112 139q-11 -3 -20 -3q-41 0 -66.5 25t-25.5 67q0 46 27 73.5t69 27.5q57 0 87 -42.5t30 -117.5q0 -82 -43 -144.5t-131 -102.5z" />
    <glyph glyph-name="quotedblleft" unicode="&#x201c;" 
d="M265 619q-53 -24 -80.5 -58t-31.5 -82q10 3 21 3q40 0 65.5 -24.5t25.5 -66.5q0 -46 -27 -73.5t-69 -27.5q-56 0 -86.5 42t-30.5 118q0 82 43.5 144.5t131.5 102.5zM530 619q-53 -24 -80.5 -58t-31.5 -82q10 3 21 3q40 0 65.5 -24.5t25.5 -66.5q0 -46 -27 -73.5
t-69 -27.5q-56 0 -86.5 42t-30.5 118q0 82 43.5 144.5t131.5 102.5z" />
    <glyph glyph-name="quotedblright" unicode="&#x201d;" 
d="M70 368q105 47 112 139q-11 -3 -20 -3q-41 0 -66.5 25t-25.5 67q0 46 27 73.5t69 27.5q57 0 87 -42.5t30 -117.5q0 -82 -43 -144.5t-131 -102.5zM335 368q105 47 112 139q-11 -3 -20 -3q-41 0 -66.5 25t-25.5 67q0 46 27 73.5t69 27.5q57 0 87 -42.5t30 -117.5
q0 -82 -43 -144.5t-131 -102.5z" />
    <glyph glyph-name="quotesinglbase" unicode="&#x201a;" 
d="M202 -152q105 47 112 139q-11 -3 -20 -3q-41 0 -66.5 25t-25.5 67q0 46 27 73.5t69 27.5q57 0 87 -42.5t30 -117.5q0 -82 -43 -144.5t-131 -102.5z" />
    <glyph glyph-name="quotedblbase" unicode="&#x201e;" 
d="M70 -152q105 47 112 139q-11 -3 -20 -3q-41 0 -66.5 25t-25.5 67q0 46 27 73.5t69 27.5q57 0 87 -42.5t30 -117.5q0 -82 -43 -144.5t-131 -102.5zM335 -152q105 47 112 139q-11 -3 -20 -3q-41 0 -66.5 25t-25.5 67q0 46 27 73.5t69 27.5q57 0 87 -42.5t30 -117.5
q0 -82 -43 -144.5t-131 -102.5z" />
    <glyph glyph-name="guilsinglleft" unicode="&#x2039;" 
d="M175 179v146l171 154l62 -55l-127 -172l127 -172l-62 -55z" />
    <glyph glyph-name="guilsinglright" unicode="&#x203a;" 
d="M319 252l-127 172l62 55l171 -154v-146l-171 -154l-62 55z" />
    <glyph glyph-name="guillemotleft" unicode="&#xab;" 
d="M43 179v146l171 154l62 -55l-127 -172l127 -172l-62 -55zM308 179v146l171 154l62 -55l-127 -172l127 -172l-62 -55z" />
    <glyph glyph-name="guillemotright" unicode="&#xbb;" 
d="M187 252l-127 172l62 55l171 -154v-146l-171 -154l-62 55zM452 252l-127 172l62 55l171 -154v-146l-171 -154l-62 55z" />
    <glyph glyph-name="hyphen" unicode="-" 
d="M70 382h460v-104h-460v104z" />
    <glyph glyph-name="uni00AD" unicode="&#xad;" 
d="M70 382h460v-104h-460v104z" />
    <glyph glyph-name="endash" unicode="&#x2013;" 
d="M80 310h440v-111h-440v111z" />
    <glyph glyph-name="emdash" unicode="&#x2014;" 
d="M20 310h560v-111h-560v111z" />
    <glyph glyph-name="figuredash" unicode="&#x2012;" 
d="M80 310h440v-111h-440v111z" />
    <glyph glyph-name="uni2015" unicode="&#x2015;" 
d="M20 310h560v-111h-560v111z" />
    <glyph glyph-name="periodcentered" unicode="&#xb7;" 
d="M184 353q0 25 8.5 46.5t23.5 37.5t36.5 25t47.5 9t47.5 -9t36.5 -25t23.5 -37.5t8.5 -46.5q0 -50 -32 -83.5t-84 -33.5t-84 33.5t-32 83.5z" />
    <glyph glyph-name="bullet" unicode="&#x2022;" 
d="M300 101q-35 0 -65 12t-52 34t-34.5 51t-12.5 64q0 34 12.5 63.5t34.5 51.5t52 34t65 12t65 -12t52 -34t34.5 -51.5t12.5 -63.5q0 -35 -12.5 -64t-34.5 -51t-52 -34t-65 -12z" />
    <glyph glyph-name="underscore" unicode="_" 
d="M540 -54v-110h-480v110h480z" />
    <glyph glyph-name="parenleft" unicode="(" 
d="M392 -179q-98 87 -154.5 201t-56.5 256t56.5 256t154.5 201l82 -65q-89 -87 -129.5 -180.5t-40.5 -211.5q0 -59 10 -111.5t30.5 -100.5t52.5 -92.5t77 -87.5l-82 -65v0z" />
    <glyph glyph-name="parenright" unicode=")" 
d="M126 -114q45 43 77 87.5t52.5 92.5t30.5 100.5t10 111.5q0 118 -40.5 211.5t-129.5 180.5l82 65q98 -87 154.5 -201t56.5 -256t-56.5 -256t-154.5 -201z" />
    <glyph glyph-name="bracketleft" unicode="[" 
d="M201 708h295v-78h-183v-704h183v-78h-295v860z" />
    <glyph glyph-name="bracketright" unicode="]" 
d="M287 -74v704h-182v78h295v-860h-295v78h182z" />
    <glyph glyph-name="braceleft" unicode="{" 
d="M233 -10q0 27 1.5 48t3.5 40.5t3.5 39t1.5 43.5q0 13 -6 26t-22 23.5t-42.5 17t-66.5 7.5v86q40 1 66.5 7.5t42.5 17t22 23.5t6 26q0 23 -1.5 43t-3.5 39.5t-3.5 41t-1.5 47.5q0 81 45 111.5t141 30.5h77v-78h-41q-31 0 -51 -3t-31 -11t-15.5 -21.5t-4.5 -34.5
q0 -40 2.5 -79t2.5 -84q0 -57 -23 -82.5t-77 -34.5v-4q54 -9 77 -34.5t23 -82.5q0 -46 -2.5 -84t-2.5 -79q0 -21 4.5 -34.5t15.5 -21.5t31 -11t51 -3h41v-78h-77q-96 0 -141 30.5t-45 111.5z" />
    <glyph glyph-name="braceright" unicode="}" 
d="M146 -74q31 0 50.5 3t30.5 11t15.5 21.5t4.5 34.5q0 41 -2 79t-2 84q0 57 23 82.5t77 34.5v4q-54 9 -77 34.5t-23 82.5q0 45 2 84t2 79q0 21 -4.5 34.5t-15.5 21.5t-30.5 11t-50.5 3h-41v78h77q96 0 141 -30.5t45 -111.5q0 -26 -1.5 -47.5t-4 -41t-4 -39.5t-1.5 -43
q0 -13 6 -26t22 -23.5t42.5 -17t67.5 -7.5v-86q-41 -1 -67.5 -7.5t-42.5 -17t-22 -23.5t-6 -26q0 -24 1.5 -43.5t4 -39t4 -40.5t1.5 -48q0 -81 -45 -111.5t-141 -30.5h-77v78h41z" />
    <glyph glyph-name="slash" unicode="/" 
d="M197 -160h-123l329 870h123z" />
    <glyph glyph-name="bar" unicode="|" 
d="M235 750h130v-1000h-130v1000z" />
    <glyph glyph-name="backslash" unicode="\" 
d="M74 710h123l329 -870h-123z" />
    <glyph glyph-name="brokenbar" unicode="&#xa6;" 
d="M235 750h130v-438h-130v438zM365 204v-454h-130v454h130z" />
    <glyph glyph-name="asterisk" unicode="*" 
d="M120 135l97 157l-153 68l23 71l162 -43l12 178h78l12 -178l162 43l23 -71l-153 -68l97 -157l-64 -44l-116 142l-116 -142z" />
    <glyph glyph-name="dagger" unicode="&#x2020;" 
d="M250 438l-161 -8v118l161 -9l-9 173h118l-9 -173l161 9v-118l-161 8l9 -518h-118z" />
    <glyph glyph-name="daggerdbl" unicode="&#x2021;" 
d="M89 202l161 -12l-9 126l9 126l-161 -12v118l161 -9l-9 173h118l-9 -173l161 9v-118l-161 12l9 -126l-9 -126l161 12v-118l-161 9l9 -173h-118l9 173l-161 -9v118z" />
    <glyph glyph-name="section" unicode="&#xa7;" 
d="M195 337q0 -24 16 -40.5t41.5 -30t56.5 -26t60 -28.5q36 22 36 60q0 24 -16 40.5t-41 30t-55.5 25.5t-60.5 27q-37 -22 -37 -58zM416 533q-23 20 -51 34t-55 14q-54 0 -54 -39q0 -18 20 -31.5t50.5 -27l66 -29.5t66 -38.5t50.5 -54.5t20 -77q0 -44 -21.5 -76.5
t-62.5 -56.5q11 -16 17 -35t6 -42q0 -34 -12.5 -63t-36.5 -50t-60 -33t-83 -12q-55 0 -108 20.5t-87 63.5l84 75q51 -51 111 -51q31 0 45.5 12t14.5 31t-19.5 33t-49 27l-64 28t-64 37.5t-49 54.5t-19.5 79q0 38 22 71.5t60 56.5q-14 17 -21.5 37t-7.5 46q0 68 46.5 110.5
t131.5 42.5q58 0 104 -20.5t78 -44.5z" />
    <glyph glyph-name="paragraph" unicode="&#xb6;" 
d="M380 652h146v-732h-146v732zM328 197h-40q-49 0 -92.5 14.5t-76.5 44t-52 73t-19 100.5q0 63 19 105.5t51.5 69t75.5 37.5t92 11h42v-455z" />
    <glyph glyph-name="copyright" unicode="&#xa9;" 
d="M19 325q0 78 22.5 139t61 103.5t89.5 65t108 22.5t108 -22.5t89.5 -65t61 -103.5t22.5 -139t-22.5 -139.5t-61 -105t-89.5 -66.5t-108 -23t-108 23t-89.5 66.5t-61 105t-22.5 139.5zM83 325q0 -62 15.5 -112t44 -86t68.5 -55.5t89 -19.5t89 19.5t68.5 55.5t44 86
t15.5 112q0 61 -15.5 111t-44 85.5t-68.5 54.5t-89 19t-89 -19t-68.5 -54.5t-44 -85.5t-15.5 -111zM139 324q0 44 14 79.5t38 60.5t55.5 38.5t65.5 13.5q39 0 65.5 -14.5t46.5 -34.5l-55 -61q-11 11 -22.5 17.5t-25.5 6.5q-37 0 -56.5 -30.5t-19.5 -75.5q0 -51 19 -81
t52 -30q19 0 32.5 6.5t27.5 17.5l47 -68q-23 -19 -50.5 -30.5t-60.5 -11.5q-38 0 -69.5 14t-54.5 39.5t-36 62t-13 81.5z" />
    <glyph glyph-name="uni2117" unicode="&#x2117;" 
d="M177 504h128q32 0 60 -7t49 -22t33 -40t12 -61q0 -37 -12.5 -64t-33.5 -45t-49 -26.5t-59 -8.5h-24v-91h-104v365zM298 306q60 0 60 64q0 29 -15.5 42t-44.5 13h-17v-119h17zM19 325q0 78 22.5 139t61 103.5t89.5 65t108 22.5t108 -22.5t89.5 -65t61 -103.5t22.5 -139
t-22.5 -139.5t-61 -105t-89.5 -66.5t-108 -23t-108 23t-89.5 66.5t-61 105t-22.5 139.5zM83 325q0 -62 15.5 -112t44 -86t68.5 -55.5t89 -19.5t89 19.5t68.5 55.5t44 86t15.5 112q0 61 -15.5 111t-44 85.5t-68.5 54.5t-89 19t-89 -19t-68.5 -54.5t-44 -85.5t-15.5 -111z" />
    <glyph glyph-name="registered" unicode="&#xae;" 
d="M299 311q-41 0 -77 15t-63 42t-42.5 64t-15.5 81t15.5 81t42.5 64t63 42t77 15t77 -15t63 -42t42.5 -64t15.5 -81t-15.5 -81t-42.5 -64t-63 -42t-77 -15zM299 360q31 0 57.5 11t46 31t30 48t10.5 63t-10.5 63t-30 48t-46 31t-57.5 11q-32 0 -58 -11t-45.5 -31t-30 -48
t-10.5 -63t10.5 -63t30 -48t45.5 -31t58 -11zM218 613h89q35 0 58 -16t23 -50q0 -17 -8.5 -31.5t-26.5 -22.5l42 -77h-60l-30 60h-29v-60h-58v197zM296 516q16 0 23.5 8.5t7.5 19.5t-7.5 18.5t-22.5 7.5h-21v-54h20z" />
    <glyph glyph-name="trademark" unicode="&#x2122;" 
d="M275 676h103l34 -94l21 -71h4l20 71l34 94h103v-314h-84v96l11 115h-4l-53 -148h-58l-54 148h-4l11 -115v-96h-84v314zM66 589h-79v87h253v-87h-78v-227h-96v227z" />
    <glyph glyph-name="uni2120" unicode="&#x2120;" 
d="M107 350q-33 0 -60.5 12t-55.5 37l50 60q17 -16 34.5 -26.5t38.5 -10.5q29 0 29 21q0 12 -8 17.5t-26 14.5l-42 21q-23 11 -41.5 32t-18.5 59q0 41 30.5 70.5t86.5 29.5q32 0 60 -11.5t49 -28.5l-44 -61q-17 11 -33.5 19.5t-33.5 8.5q-15 0 -22 -6.5t-7 -15.5
q0 -10 8.5 -15.5t26.5 -13.5l41 -20q30 -14 46 -33.5t16 -56.5q0 -20 -8.5 -38.5t-24.5 -33t-39 -23t-52 -8.5zM275 676h103l34 -94l21 -71h4l20 71l34 94h103v-314h-84v96l11 115h-4l-53 -148h-58l-54 148h-4l11 -115v-96h-84v314z" />
    <glyph glyph-name="at" unicode="@" 
d="M550 100h-78l-11 51h-4q-19 -28 -49 -45.5t-71 -17.5q-27 0 -50.5 11t-40.5 30t-26.5 44.5t-9.5 54.5q0 40 17.5 69.5t50 50t78.5 33t103 19.5v16q0 28 -8 53t-24 44.5t-41 31t-58 11.5q-35 0 -70 -17t-63 -54t-45.5 -95.5t-17.5 -140.5q0 -78 18 -135.5t47.5 -96
t67.5 -57t79 -18.5q45 0 74.5 10.5t58.5 27.5l42 -73q-42 -25 -84 -39.5t-96 -14.5q-60 0 -115.5 24t-98.5 73.5t-68.5 125t-25.5 177.5t24 175.5t65 121.5t95.5 71t115.5 23q57 0 98.5 -19t68 -52t39.5 -77.5t13 -96.5v-299zM317 232q0 -23 14 -35.5t39 -12.5
q22 0 39.5 9.5t34.5 26.5v92q-70 -11 -98.5 -29t-28.5 -51z" />
    <glyph glyph-name="at.case" 
d="M550 164h-78l-11 50h-4q-19 -27 -49 -44.5t-71 -17.5q-27 0 -50.5 11t-40.5 30t-26.5 44.5t-9.5 54.5q0 40 17.5 69.5t50 49.5t78.5 32.5t103 20.5v7q0 21 -8 39.5t-23.5 33t-39 23t-54.5 8.5q-35 0 -71 -14t-65 -45t-47.5 -81t-18.5 -122q0 -63 18 -110t47.5 -78
t67.5 -46t79 -15q45 0 74.5 10t58.5 28l42 -73q-42 -25 -84 -39.5t-96 -14.5q-60 0 -115.5 21t-98.5 63t-68.5 106t-25.5 151q0 92 25 158t67 108t97.5 62t117.5 20q55 0 95 -17t66 -47t38.5 -69.5t12.5 -84.5v-282zM317 295q0 -22 14 -35t39 -13q22 0 39.5 10t34.5 27v91
q-70 -11 -98.5 -28.5t-28.5 -51.5z" />
    <glyph glyph-name="numbersign" unicode="#" 
d="M144 187h-74v94h85l14 110h-79v94h91l21 165h84l-20 -165h104l21 165h84l-20 -165h79v-94h-91l-13 -110h84v-94h-95l-23 -187h-85l22 187h-103l-23 -187h-85zM344 281l14 110h-104l-13 -110h103z" />
    <glyph glyph-name="asterisk.a" 
d="M135 323l82 140l-133 56l23 72l142 -32l12 153h78l12 -153l142 32l23 -72l-133 -56l82 -140l-64 -44l-101 126l-101 -126z" />
    <glyph glyph-name="hyphen.a" 
d="M124 310h352v-111h-352v111z" />
    <glyph glyph-name="uni00AD.a" 
d="M124 310h352v-111h-352v111z" />
    <glyph glyph-name="dollar.a" 
d="M317 153q36 0 55 12t19 33q0 17 -15.5 29t-40.5 23zM292 499q-33 0 -51 -11.5t-18 -34.5q0 -14 14.5 -24.5t38.5 -19.5zM359 379q31 -11 62 -25t55.5 -34t40 -47t15.5 -64t-15.5 -69t-45.5 -55.5t-74.5 -37t-101.5 -13.5l-28 -149l-87 10l28 151q-39 10 -77 27.5
t-67 41.5l64 100q27 -16 52 -28t51 -20l21 114q-31 12 -61 26t-54 34t-39 46.5t-15 63.5q0 38 15.5 69t44 52.5t69 33.5t90.5 12h12l25 132l88 -10l-26 -137q34 -11 61.5 -29t50.5 -41l-73 -84q-17 11 -31.5 19.5t-29.5 14.5z" />
    <glyph glyph-name="zero.sups" unicode="&#x2070;" 
d="M300 428q-32 0 -59 12t-47 34t-31 53.5t-11 70.5t11 69.5t31 52t47 33t59 11.5t59 -11.5t47 -33t31 -52t11 -69.5t-11 -70.5t-31 -53.5t-47 -34t-59 -12zM300 507q19 0 33.5 20t14.5 71t-14.5 69t-33.5 18t-33.5 -18t-14.5 -69t14.5 -71t33.5 -20z" />
    <glyph glyph-name="one.sups" unicode="&#xb9;" 
d="M277 652h-81v64q19 3 33 6t26 7t23 9.5t23 13.5h83v-312h-107v212z" />
    <glyph glyph-name="two.sups" unicode="&#xb2;" 
d="M173 495q31 20 57.5 40t46 38.5t31 34.5t11.5 29q0 19 -11 30t-33 11q-29 0 -55 -35l-62 56q29 29 61 47t73 18q60 0 95 -29t35 -80q0 -35 -25 -67t-56 -61h92v-87h-260v55z" />
    <glyph glyph-name="three.sups" unicode="&#xb3;" 
d="M206 536q16 -11 38.5 -20t43.5 -9q17 0 29.5 7t12.5 22q0 17 -17.5 26t-55.5 9v55q29 0 45 7t16 25q0 12 -10 19.5t-29 7.5q-17 0 -34 -8t-32 -17l-42 62q23 18 57 30t75 12q25 0 46.5 -6.5t37.5 -18t25.5 -28t9.5 -36.5q0 -27 -12 -43.5t-42 -27.5q35 -10 50.5 -29
t15.5 -47q0 -22 -10.5 -40.5t-28.5 -31.5t-42.5 -20.5t-51.5 -7.5q-31 0 -66 8t-70 34z" />
    <glyph glyph-name="four.sups" unicode="&#x2074;" 
d="M321 567v22l6 99h-4l-34 -62l-33 -59h65zM466 501h-51v-61h-94v61h-160v51l120 200h134v-185h51v-66z" />
    <glyph glyph-name="five.sups" unicode="&#x2075;" 
d="M206 536q17 -11 38.5 -20t43.5 -9q18 0 31 9t13 26q0 18 -12.5 27t-31.5 9q-15 0 -26 -4t-25 -12l-43 29l14 161h213v-88h-133l-4 -35q8 3 20 4.5t23 1.5q50 0 79.5 -25.5t29.5 -71.5q0 -23 -10 -43t-28 -35t-42.5 -23.5t-53.5 -8.5q-34 0 -68 8t-69 34z" />
    <glyph glyph-name="six.sups" unicode="&#x2076;" 
d="M307 507q17 0 26.5 8.5t9.5 23.5q0 31 -38 31q-25 0 -45 -19q5 -26 19 -35t28 -9zM393 662q-13 11 -27 17t-32 6q-38 0 -55 -23t-21 -57q16 14 35.5 21.5t43.5 7.5q46 0 73 -24t27 -70q0 -23 -9.5 -43.5t-26 -35.5t-39.5 -24t-50 -9q-72 0 -111 46.5t-39 120.5
q0 34 10.5 64.5t31 53.5t51 37t71.5 14q32 0 59 -11.5t50 -29.5z" />
    <glyph glyph-name="seven.sups" unicode="&#x2077;" 
d="M233 440q2 34 8.5 62t17.5 54.5t27 52.5t37 56h-146v87h264v-56q-29 -32 -46.5 -61.5t-28 -59.5t-15 -63t-6.5 -72h-112v0z" />
    <glyph glyph-name="eight.sups" unicode="&#x2078;" 
d="M260 527q0 -14 11.5 -22.5t28.5 -8.5t28.5 8t11.5 21q0 16 -15.5 25t-38.5 16q-12 -6 -19 -17t-7 -22zM313 634q19 12 19 32q0 12 -9 20t-24 8q-13 0 -21.5 -6.5t-8.5 -17.5q0 -14 12 -21.5t32 -14.5zM166 519q0 31 19 48t42 29v4q-23 15 -37.5 29t-14.5 44q0 21 10 37.5
t27 28.5t39.5 18.5t48.5 6.5q54 0 90 -24.5t36 -66.5q0 -26 -15 -40t-38 -25v-4q13 -7 24 -14.5t19.5 -17t13 -22.5t4.5 -31t-10 -34.5t-27.5 -29t-42 -20t-54.5 -7.5q-60 0 -97 26.5t-37 64.5z" />
    <glyph glyph-name="nine.sups" unicode="&#x2079;" 
d="M258 652q0 -31 37 -31q11 0 23 5t23 13q-6 27 -20 36.5t-28 9.5q-35 0 -35 -33zM207 529q13 -11 27.5 -16.5t32.5 -5.5q38 0 54.5 22.5t20.5 55.5q-33 -27 -79 -27q-45 0 -72 23.5t-27 70.5q0 23 9.5 43.5t26 35.5t39.5 24t50 9q35 0 63 -12.5t47.5 -34.5t29.5 -53
t10 -68q0 -33 -10.5 -63.5t-31.5 -54t-51.5 -37t-70.5 -13.5q-33 0 -60 11t-49 30z" />
    <glyph glyph-name="parenleft.sups" unicode="&#x207d;" 
d="M214 606q0 79 28.5 138.5t79.5 115.5l79 -48q-41 -48 -62 -99.5t-21 -106.5q0 -56 21 -107.5t62 -99.5l-79 -48q-51 56 -79.5 115.5t-28.5 139.5z" />
    <glyph glyph-name="parenright.sups" unicode="&#x207e;" 
d="M386 606q0 -80 -28.5 -139.5t-79.5 -115.5l-79 48q41 48 62 99.5t21 107.5q0 55 -21 106.5t-62 99.5l79 48q51 -56 79.5 -115.5t28.5 -138.5z" />
    <glyph glyph-name="period.sups" 
d="M237 496q0 27 18 46t45 19t45 -19t18 -46q0 -28 -18 -46t-45 -18t-45 18t-18 46z" />
    <glyph glyph-name="comma.sups" 
d="M227 365q38 12 57.5 29.5t19.5 46.5h-4q-25 0 -44 15.5t-19 44.5q0 26 19 43t46 17q34 0 52.5 -25t18.5 -72q0 -57 -32 -97t-92 -57z" />
    <glyph glyph-name="zero.subs" unicode="&#x2080;" 
d="M300 -181q-32 0 -59 12t-47 34t-31 53.5t-11 70.5t11 69.5t31 52t47 33t59 11.5t59 -11.5t47 -33t31 -52t11 -69.5t-11 -70.5t-31 -53.5t-47 -34t-59 -12zM300 -102q19 0 33.5 20t14.5 71t-14.5 69t-33.5 18t-33.5 -18t-14.5 -69t14.5 -71t33.5 -20z" />
    <glyph glyph-name="one.subs" unicode="&#x2081;" 
d="M277 43h-81v64q19 3 33 6t26 7t23 9.5t23 13.5h83v-312h-107v212z" />
    <glyph glyph-name="two.subs" unicode="&#x2082;" 
d="M173 -114q31 20 57.5 40t46 38.5t31 34.5t11.5 29q0 19 -11 30t-33 11q-29 0 -55 -35l-62 56q29 29 61 47t73 18q60 0 95 -29t35 -80q0 -35 -25 -67t-56 -61h92v-87h-260v55z" />
    <glyph glyph-name="three.subs" unicode="&#x2083;" 
d="M206 -73q16 -11 38.5 -20t43.5 -9q17 0 29.5 7t12.5 22q0 17 -17.5 26t-55.5 9v55q29 0 45 7t16 25q0 12 -10 19.5t-29 7.5q-17 0 -34 -8t-32 -17l-42 62q23 18 57 30t75 12q25 0 46.5 -6.5t37.5 -18t25.5 -28t9.5 -36.5q0 -27 -12 -43.5t-42 -27.5q35 -10 50.5 -29
t15.5 -47q0 -22 -10.5 -40.5t-28.5 -31.5t-42.5 -20.5t-51.5 -7.5q-31 0 -66 8t-70 34z" />
    <glyph glyph-name="four.subs" unicode="&#x2084;" 
d="M321 -42v22l6 99h-4l-34 -62l-33 -59h65zM466 -108h-51v-61h-94v61h-160v51l120 200h134v-185h51v-66z" />
    <glyph glyph-name="five.subs" unicode="&#x2085;" 
d="M206 -73q17 -11 38.5 -20t43.5 -9q18 0 31 9t13 26q0 18 -12.5 27t-31.5 9q-15 0 -26 -4t-25 -12l-43 29l14 161h213v-88h-133l-4 -35q8 3 20 4.5t23 1.5q50 0 79.5 -25.5t29.5 -71.5q0 -23 -10 -43t-28 -35t-42.5 -23.5t-53.5 -8.5q-34 0 -68 8t-69 34z" />
    <glyph glyph-name="six.subs" unicode="&#x2086;" 
d="M307 -102q17 0 26.5 8.5t9.5 23.5q0 31 -38 31q-25 0 -45 -19q5 -26 19 -35t28 -9zM393 53q-13 11 -27 17t-32 6q-38 0 -55 -23t-21 -57q16 14 35.5 21.5t43.5 7.5q46 0 73 -24t27 -70q0 -23 -9.5 -43.5t-26 -35.5t-39.5 -24t-50 -9q-72 0 -111 46.5t-39 120.5
q0 34 10.5 64.5t31 53.5t51 37t71.5 14q32 0 59 -11.5t50 -29.5z" />
    <glyph glyph-name="seven.subs" unicode="&#x2087;" 
d="M233 -169q2 34 8.5 62t17.5 54.5t27 52.5t37 56h-146v87h264v-56q-29 -32 -46.5 -61.5t-28 -59.5t-15 -63t-6.5 -72h-112v0z" />
    <glyph glyph-name="eight.subs" unicode="&#x2088;" 
d="M260 -82q0 -14 11.5 -22.5t28.5 -8.5t28.5 8t11.5 21q0 16 -15.5 25t-38.5 16q-12 -6 -19 -17t-7 -22zM313 25q19 12 19 32q0 12 -9 20t-24 8q-13 0 -21.5 -6.5t-8.5 -17.5q0 -14 12 -21.5t32 -14.5zM166 -90q0 31 19 48t42 29v4q-23 15 -37.5 29t-14.5 44q0 21 10 37.5
t27 28.5t39.5 18.5t48.5 6.5q54 0 90 -24.5t36 -66.5q0 -26 -15 -40t-38 -25v-4q13 -7 24 -14.5t19.5 -17t13 -22.5t4.5 -31t-10 -34.5t-27.5 -29t-42 -20t-54.5 -7.5q-60 0 -97 26.5t-37 64.5z" />
    <glyph glyph-name="nine.subs" unicode="&#x2089;" 
d="M258 43q0 -31 37 -31q11 0 23 5t23 13q-6 27 -20 36.5t-28 9.5q-35 0 -35 -33zM207 -80q13 -11 27.5 -16.5t32.5 -5.5q38 0 54.5 22.5t20.5 55.5q-33 -27 -79 -27q-45 0 -72 23.5t-27 70.5q0 23 9.5 43.5t26 35.5t39.5 24t50 9q35 0 63 -12.5t47.5 -34.5t29.5 -53t10 -68
q0 -33 -10.5 -63.5t-31.5 -54t-51.5 -37t-70.5 -13.5q-33 0 -60 11t-49 30z" />
    <glyph glyph-name="parenleft.subs" unicode="&#x208d;" 
d="M214 -3q0 79 28.5 138.5t79.5 115.5l79 -48q-41 -48 -62 -99.5t-21 -106.5q0 -56 21 -107.5t62 -99.5l-79 -48q-51 56 -79.5 115.5t-28.5 139.5z" />
    <glyph glyph-name="parenright.subs" unicode="&#x208e;" 
d="M386 -3q0 -80 -28.5 -139.5t-79.5 -115.5l-79 48q41 48 62 99.5t21 107.5q0 55 -21 106.5t-62 99.5l79 48q51 -56 79.5 -115.5t28.5 -138.5z" />
    <glyph glyph-name="period.subs" 
d="M237 -113q0 27 18 46t45 19t45 -19t18 -46q0 -28 -18 -46t-45 -18t-45 18t-18 46z" />
    <glyph glyph-name="comma.subs" 
d="M227 -244q38 12 57.5 29.5t19.5 46.5h-4q-25 0 -44 15.5t-19 44.5q0 26 19 43t46 17q34 0 52.5 -25t18.5 -72q0 -57 -32 -97t-92 -57z" />
    <glyph glyph-name="zero.dnom" 
d="M300 -12q-32 0 -59 12t-47 34t-31 53.5t-11 70.5t11 69.5t31 52t47 33t59 11.5t59 -11.5t47 -33t31 -52t11 -69.5t-11 -70.5t-31 -53.5t-47 -34t-59 -12zM300 67q19 0 33.5 20t14.5 71t-14.5 69t-33.5 18t-33.5 -18t-14.5 -69t14.5 -71t33.5 -20z" />
    <glyph glyph-name="one.dnom" 
d="M277 212h-81v64q19 3 33 6t26 7t23 9.5t23 13.5h83v-312h-107v212z" />
    <glyph glyph-name="two.dnom" 
d="M171 55q31 20 57.5 40t46 38.5t31 34.5t11.5 29q0 19 -11 30t-33 11q-29 0 -55 -35l-62 56q29 29 61 47t73 18q60 0 95 -29t35 -80q0 -35 -25 -67t-56 -61h92v-87h-260v55z" />
    <glyph glyph-name="three.dnom" 
d="M206 96q16 -11 38.5 -20t43.5 -9q17 0 29.5 7t12.5 22q0 17 -17.5 26t-55.5 9v55q29 0 45 7t16 25q0 12 -10 19.5t-29 7.5q-17 0 -34 -8t-32 -17l-42 62q23 18 57 30t75 12q25 0 46.5 -6.5t37.5 -18t25.5 -28t9.5 -36.5q0 -27 -12 -43.5t-42 -27.5q35 -10 50.5 -29
t15.5 -47q0 -22 -10.5 -40.5t-28.5 -31.5t-42.5 -20.5t-51.5 -7.5q-31 0 -66 8t-70 34z" />
    <glyph glyph-name="four.dnom" 
d="M321 127v22l6 99h-4l-34 -62l-33 -59h65zM466 61h-51v-61h-94v61h-160v51l120 200h134v-185h51v-66z" />
    <glyph glyph-name="five.dnom" 
d="M206 96q17 -11 38.5 -20t43.5 -9q18 0 31 9t13 26q0 18 -12.5 27t-31.5 9q-15 0 -26 -4t-25 -12l-43 29l14 161h213v-88h-133l-4 -35q8 3 20 4.5t23 1.5q50 0 79.5 -25.5t29.5 -71.5q0 -23 -10 -43t-28 -35t-42.5 -23.5t-53.5 -8.5q-34 0 -68 8t-69 34z" />
    <glyph glyph-name="six.dnom" 
d="M307 67q17 0 26.5 8.5t9.5 23.5q0 31 -38 31q-25 0 -45 -19q5 -26 19 -35t28 -9zM393 222q-13 11 -27 17t-32 6q-38 0 -55 -23t-21 -57q16 14 35.5 21.5t43.5 7.5q46 0 73 -24t27 -70q0 -23 -9.5 -43.5t-26 -35.5t-39.5 -24t-50 -9q-72 0 -111 46.5t-39 120.5
q0 34 10.5 64.5t31 53.5t51 37t71.5 14q32 0 59 -11.5t50 -29.5z" />
    <glyph glyph-name="seven.dnom" 
d="M233 0q2 34 8.5 62t17.5 54.5t27 52.5t37 56h-146v87h264v-56q-29 -32 -46.5 -61.5t-28 -59.5t-15 -63t-6.5 -72h-112v0z" />
    <glyph glyph-name="eight.dnom" 
d="M260 87q0 -14 11.5 -22.5t28.5 -8.5t28.5 8t11.5 21q0 16 -15.5 25t-38.5 16q-12 -6 -19 -17t-7 -22zM313 194q19 12 19 32q0 12 -9 20t-24 8q-13 0 -21.5 -6.5t-8.5 -17.5q0 -14 12 -21.5t32 -14.5zM166 79q0 31 19 48t42 29v4q-23 15 -37.5 29t-14.5 44q0 21 10 37.5
t27 28.5t39.5 18.5t48.5 6.5q54 0 90 -24.5t36 -66.5q0 -26 -15 -40t-38 -25v-4q13 -7 24 -14.5t19.5 -17t13 -22.5t4.5 -31t-10 -34.5t-27.5 -29t-42 -20t-54.5 -7.5q-60 0 -97 26.5t-37 64.5z" />
    <glyph glyph-name="nine.dnom" 
d="M258 212q0 -31 37 -31q11 0 23 5t23 13q-6 27 -20 36.5t-28 9.5q-35 0 -35 -33zM207 89q13 -11 27.5 -16.5t32.5 -5.5q38 0 54.5 22.5t20.5 55.5q-33 -27 -79 -27q-45 0 -72 23.5t-27 70.5q0 23 9.5 43.5t26 35.5t39.5 24t50 9q35 0 63 -12.5t47.5 -34.5t29.5 -53t10 -68
q0 -33 -10.5 -63.5t-31.5 -54t-51.5 -37t-70.5 -13.5q-33 0 -60 11t-49 30z" />
    <glyph glyph-name="parenleft.dnom" 
d="M214 166q0 79 28.5 138.5t79.5 115.5l79 -48q-41 -48 -62 -99.5t-21 -106.5q0 -56 21 -107.5t62 -99.5l-79 -48q-51 56 -79.5 115.5t-28.5 139.5z" />
    <glyph glyph-name="parenright.dnom" 
d="M386 166q0 -80 -28.5 -139.5t-79.5 -115.5l-79 48q41 48 62 99.5t21 107.5q0 55 -21 106.5t-62 99.5l79 48q51 -56 79.5 -115.5t28.5 -138.5z" />
    <glyph glyph-name="period.dnom" 
d="M237 56q0 27 18 46t45 19t45 -19t18 -46q0 -28 -18 -46t-45 -18t-45 18t-18 46z" />
    <glyph glyph-name="comma.dnom" 
d="M227 -75q38 12 57.5 29.5t19.5 46.5h-4q-25 0 -44 15.5t-19 44.5q0 26 19 43t46 17q34 0 52.5 -25t18.5 -72q0 -57 -32 -97t-92 -57z" />
    <glyph glyph-name="zero.numr" 
d="M300 312q-32 0 -59 12t-47 34t-31 53.5t-11 70.5t11 69.5t31 52t47 33t59 11.5t59 -11.5t47 -33t31 -52t11 -69.5t-11 -70.5t-31 -53.5t-47 -34t-59 -12zM300 391q19 0 33.5 20t14.5 71t-14.5 69t-33.5 18t-33.5 -18t-14.5 -69t14.5 -71t33.5 -20z" />
    <glyph glyph-name="one.numr" 
d="M277 536h-81v64q19 3 33 6t26 7t23 9.5t23 13.5h83v-312h-107v212z" />
    <glyph glyph-name="two.numr" 
d="M173 379q31 20 57.5 40t46 38.5t31 34.5t11.5 29q0 19 -11 30t-33 11q-29 0 -55 -35l-62 56q29 29 61 47t73 18q60 0 95 -29t35 -80q0 -35 -25 -67t-56 -61h92v-87h-260v55z" />
    <glyph glyph-name="three.numr" 
d="M206 420q16 -11 38.5 -20t43.5 -9q17 0 29.5 7t12.5 22q0 17 -17.5 26t-55.5 9v55q29 0 45 7t16 25q0 12 -10 19.5t-29 7.5q-17 0 -34 -8t-32 -17l-42 62q23 18 57 30t75 12q25 0 46.5 -6.5t37.5 -18t25.5 -28t9.5 -36.5q0 -27 -12 -43.5t-42 -27.5q35 -10 50.5 -29
t15.5 -47q0 -22 -10.5 -40.5t-28.5 -31.5t-42.5 -20.5t-51.5 -7.5q-31 0 -66 8t-70 34z" />
    <glyph glyph-name="four.numr" 
d="M321 451v22l6 99h-4l-34 -62l-33 -59h65zM466 385h-51v-61h-94v61h-160v51l120 200h134v-185h51v-66z" />
    <glyph glyph-name="five.numr" 
d="M206 420q17 -11 38.5 -20t43.5 -9q18 0 31 9t13 26q0 18 -12.5 27t-31.5 9q-15 0 -26 -4t-25 -12l-43 29l14 161h213v-88h-133l-4 -35q8 3 20 4.5t23 1.5q50 0 79.5 -25.5t29.5 -71.5q0 -23 -10 -43t-28 -35t-42.5 -23.5t-53.5 -8.5q-34 0 -68 8t-69 34z" />
    <glyph glyph-name="six.numr" 
d="M307 391q17 0 26.5 8.5t9.5 23.5q0 31 -38 31q-25 0 -45 -19q5 -26 19 -35t28 -9zM393 546q-13 11 -27 17t-32 6q-38 0 -55 -23t-21 -57q16 14 35.5 21.5t43.5 7.5q46 0 73 -24t27 -70q0 -23 -9.5 -43.5t-26 -35.5t-39.5 -24t-50 -9q-72 0 -111 46.5t-39 120.5
q0 34 10.5 64.5t31 53.5t51 37t71.5 14q32 0 59 -11.5t50 -29.5z" />
    <glyph glyph-name="seven.numr" 
d="M233 324q2 34 8.5 62t17.5 54.5t27 52.5t37 56h-146v87h264v-56q-29 -32 -46.5 -61.5t-28 -59.5t-15 -63t-6.5 -72h-112v0z" />
    <glyph glyph-name="eight.numr" 
d="M260 411q0 -14 11.5 -22.5t28.5 -8.5t28.5 8t11.5 21q0 16 -15.5 25t-38.5 16q-12 -6 -19 -17t-7 -22zM313 518q19 12 19 32q0 12 -9 20t-24 8q-13 0 -21.5 -6.5t-8.5 -17.5q0 -14 12 -21.5t32 -14.5zM166 403q0 31 19 48t42 29v4q-23 15 -37.5 29t-14.5 44q0 21 10 37.5
t27 28.5t39.5 18.5t48.5 6.5q54 0 90 -24.5t36 -66.5q0 -26 -15 -40t-38 -25v-4q13 -7 24 -14.5t19.5 -17t13 -22.5t4.5 -31t-10 -34.5t-27.5 -29t-42 -20t-54.5 -7.5q-60 0 -97 26.5t-37 64.5z" />
    <glyph glyph-name="nine.numr" 
d="M258 536q0 -31 37 -31q11 0 23 5t23 13q-6 27 -20 36.5t-28 9.5q-35 0 -35 -33zM207 413q13 -11 27.5 -16.5t32.5 -5.5q38 0 54.5 22.5t20.5 55.5q-33 -27 -79 -27q-45 0 -72 23.5t-27 70.5q0 23 9.5 43.5t26 35.5t39.5 24t50 9q35 0 63 -12.5t47.5 -34.5t29.5 -53
t10 -68q0 -33 -10.5 -63.5t-31.5 -54t-51.5 -37t-70.5 -13.5q-33 0 -60 11t-49 30z" />
    <glyph glyph-name="parenleft.numr" 
d="M214 428q0 79 28.5 138.5t79.5 115.5l79 -48q-41 -48 -62 -99.5t-21 -106.5q0 -56 21 -107.5t62 -99.5l-79 -48q-51 56 -79.5 115.5t-28.5 139.5z" />
    <glyph glyph-name="parenright.numr" 
d="M386 428q0 -80 -28.5 -139.5t-79.5 -115.5l-79 48q41 48 62 99.5t21 107.5q0 55 -21 106.5t-62 99.5l79 48q51 -56 79.5 -115.5t28.5 -138.5z" />
    <glyph glyph-name="period.numr" 
d="M237 318q0 27 18 46t45 19t45 -19t18 -46q0 -28 -18 -46t-45 -18t-45 18t-18 46z" />
    <glyph glyph-name="comma.numr" 
d="M227 187q38 12 57.5 29.5t19.5 46.5h-4q-25 0 -44 15.5t-19 44.5q0 26 19 43t46 17q34 0 52.5 -25t18.5 -72q0 -57 -32 -97t-92 -57z" />
    <glyph glyph-name="ordfeminine" unicode="&#xaa;" 
d="M154 351q0 53 46 82t149 39q-3 43 -56 43q-20 0 -43 -7.5t-48 -21.5l-37 67q33 20 71 32t78 12q65 0 102 -36.5t37 -114.5v-186h-85l-7 33h-2q-22 -18 -47.5 -29.5t-52.5 -11.5q-48 0 -76.5 29t-28.5 70zM254 360q0 -14 10.5 -21.5t27.5 -7.5q16 0 30.5 7t26.5 19v53
q-54 -7 -74.5 -20t-20.5 -30z" />
    <glyph glyph-name="ordfeminine.a" 
d="M235 425q0 -47 16.5 -68t43.5 -21q15 0 28.5 5.5t25.5 21.5v130q-13 11 -27.5 15.5t-28.5 4.5q-22 0 -40 -21t-18 -67zM128 424q0 40 12 72.5t32 54.5t46 34t54 12q50 0 88 -41h3l9 33h80v-329h-84l-8 32h-2q-17 -17 -42 -28.5t-49 -11.5q-63 0 -101 45.5t-38 126.5z" />
    <glyph glyph-name="ordmasculine" unicode="&#xba;" 
d="M133 424q0 41 13.5 73t37 54.5t53.5 34t63 11.5t63 -11.5t53.5 -34t37 -54.5t13.5 -73t-13.5 -73t-37 -54t-53.5 -33.5t-63 -11.5t-63 11.5t-53.5 33.5t-37 54t-13.5 73zM239 424q0 -41 14.5 -65.5t46.5 -24.5t46.5 24.5t14.5 65.5q0 42 -14.5 66t-46.5 24t-46.5 -24
t-14.5 -66z" />
    </font>
</defs>
</svg>
